[ Сегодня идет свободное скачивание без начисления Download ]


Статистика раздачи
Нет
 
   
 
Top  
 
 
Анна Каренина / Anna Karenina- Страна: Великобритания
Жанр: драма, мелодрама
Год выпуска: 2012
Продолжительность: 02:09:33-Перевод:
1. Профессиональный (дублированный)
Оригинальная аудиодорожка: английский
Cубтитры: русские, английские
Навигация по главам: есть-Режиссер: Джо Райт / Joe Wright
В ролях: Кира Найтли, Джуд Лоу, Аарон Джонсон, Келли Макдоналд, Мэттью Макфейден, Домналл Глисон, Рут Уилсон, Алисия Викандер, Оливия Уильямс, Эмили Уотсон
Описание: Встречая приехавшую из Петербурга мать, молодой блистательный офицер граф Вронский знакомится с женой влиятельного петербургского чиновника Анной Карениной. Огонь страсти вспыхивает мгновенно, но их любовь шокирует высшее общество. В мире, где правят предрассудки и стереотипы, ей придётся сделать поистине непростой выбор между семьёй и всепоглощающей страстью…
Исходник: BD Remux (1080p, 23.976 fps, VC-1, ~26775 kbps)
Качество видео: BDRip-AVC
Формат видео: MKV
Видео кодек: H.264
Видео: 1280x536 (2.40:1), 23.976 fps, ~4371 kbps, 0.266 bpp
Аудио 1: Русский 48 kHz, AC3 5.1, 448 kbps :: Дублированный
Аудио 2: Английский 48 kHz, AC3 5.1, 448 Kbps
Субтитры 1-2: русские, английские
Формат субтитров: softsub (SRT)
Размер: С одной дорожкой поместится на DVD5.

x264

x264 [info]: 1280x536p 1:1 @ 24000/1001 fps (cfr)
x264 [info]: using SAR=1/1
x264 [info]: using cpu capabilities: MMX2 SSE2Fast SSSE3 FastShuffle SSE4.2 AVX
x264 [info]: profile High, level 4.1
x264 [info]: cabac=1 ref=11 deblock=1:-2:-2 analyse=0x3:0x113 me=umh subme=10 psy=1 fade_compensate=0.00 psy_rd=1.05:0.10 mixed_ref=1 me_range=32 chroma_me=1 trellis=2 8x8dct=1 cqm=0 deadzone=21,11 fast_pskip=0 chroma_qp_offset=-3 threads=6 lookahead_threads=1 sliced_threads=0 nr=0 decimate=0 interlaced=0 bluray_compat=0 constrained_intra=0 bframes=11 b_pyramid=2 b_adapt=2 b_bias=0 direct=3 weightb=1 open_gop=0 weightp=2 keyint=250 keyint_min=23 scenecut=40 intra_refresh=0 rc_lookahead=60 rc=2pass mbtree=1 bitrate=4371 ratetol=1.0 qcomp=0.70 qpmin=0 qpmax=69 qpstep=4 cplxblur=20.0 qblur=0.5 vbv_maxrate=50000 vbv_bufsize=62500 nal_hrd=none ip_ratio=1.20 aq=1:1.00
x264 [info]: frame I:1376 Avg QP:15.10 size:101260
x264 [info]: frame P:35724 Avg QP:17.09 size: 43175
x264 [info]: frame B:149256 Avg QP:19.30 size: 17186
x264 [info]: consecutive B-frames: 1.3% 1.2% 4.1% 17.4% 11.3% 49.8% 3.6% 4.9% 1.2% 2.5% 0.8% 1.9%
x264 [info]: mb I I16..4: 9.6% 74.9% 15.4%
x264 [info]: mb P I16..4: 1.0% 14.1% 1.3% P16..4: 34.2% 28.9% 15.1% 0.0% 0.0% skip: 5.4%
x264 [info]: mb B I16..4: 0.1% 2.6% 0.1% B16..8: 40.3% 13.0% 3.5% direct: 6.4% skip:34.1% L0:44.9% L1:43.0% BI:12.1%
x264 [info]: 8x8 transform intra:87.7% inter:58.8%
x264 [info]: direct mvs spatial:98.9% temporal:1.1%
x264 [info]: coded y,uvDC,uvAC intra: 94.3% 92.0% 82.6% inter: 29.7% 24.4% 13.7%
x264 [info]: i16 v,h,dc,p: 54% 7% 8% 31%
x264 [info]: i8 v,h,dc,ddl,ddr,vr,hd,vl,hu: 12% 8% 11% 9% 13% 12% 12% 11% 12%
x264 [info]: i4 v,h,dc,ddl,ddr,vr,hd,vl,hu: 13% 7% 4% 9% 15% 14% 14% 12% 12%
x264 [info]: i8c dc,h,v,p: 50% 15% 15% 19%
x264 [info]: Weighted P-Frames: Y:3.6% UV:1.8%
x264 [info]: ref P L0: 46.3% 8.0% 15.9% 8.1% 6.0% 4.7% 3.8% 2.3% 1.9% 1.6% 1.3% 0.1% 0.0%
x264 [info]: ref B L0: 69.3% 13.6% 6.4% 3.4% 2.4% 1.9% 1.5% 0.9% 0.5% 0.2%
x264 [info]: ref B L1: 91.9% 8.1%
x264 [info]: kb/s:4371.09

MediaInfo

General
Unique ID : 224209662243013372312879260922069031168 (0xA8AD35D1DC733E02A5F2D06ED42E9900)
Complete name : E:\Anna.Karenina.2012.BDRip-AVC.mkv
Format : Matroska
Format version : Version 4 / Version 2
File size : 4.77 GiB
Duration : 2h 9mn
Overall bit rate : 5 269 Kbps
Movie name : Anna Karenina (2012)
Encoded date : UTC 2013-02-08 09:50:48
Writing application : mkvmerge v6.0.0 ('Coming Up For Air') built on Jan 20 2013 09:52:00
Writing library : libebml v1.3.0 + libmatroska v1.4.0
Video
ID : 1
Format : AVC
Format/Info : Advanced Video Codec
Format profile : High@L4.1
Format settings, CABAC : Yes
Format settings, ReFrames : 11 frames
Codec ID : V_MPEG4/ISO/AVC
Duration : 2h 9mn
Bit rate : 4 371 Kbps
Width : 1 280 pixels
Height : 536 pixels
Display aspect ratio : 2.40:1
Frame rate mode : Constant
Frame rate : 23.976 fps
Color space : YUV
Chroma subsampling : 4:2:0
Bit depth : 8 bits
Scan type : Progressive
Bits/(Pixel*Frame) : 0.266
Stream size : 3.86 GiB (81%)
Title : Anna Karenina (2012)
Writing library : x264 core 129 r2230kMod 1cffe9f
Encoding settings : cabac=1 / ref=11 / deblock=1:-2:-2 / analyse=0x3:0x113 / me=umh / subme=10 / psy=1 / fade_compensate=0.00 / psy_rd=1.05:0.10 / mixed_ref=1 / me_range=32 / chroma_me=1 / trellis=2 / 8x8dct=1 / cqm=0 / deadzone=21,11 / fast_pskip=0 / chroma_qp_offset=-3 / threads=6 / lookahead_threads=1 / sliced_threads=0 / nr=0 / decimate=0 / interlaced=0 / bluray_compat=0 / constrained_intra=0 / bframes=11 / b_pyramid=2 / b_adapt=2 / b_bias=0 / direct=3 / weightb=1 / open_gop=0 / weightp=2 / keyint=250 / keyint_min=23 / scenecut=40 / intra_refresh=0 / rc_lookahead=60 / rc=2pass / mbtree=1 / bitrate=4371 / ratetol=1.0 / qcomp=0.70 / qpmin=0 / qpmax=69 / qpstep=4 / cplxblur=20.0 / qblur=0.5 / vbv_maxrate=50000 / vbv_bufsize=62500 / nal_hrd=none / ip_ratio=1.20 / aq=1:1.00
Language : English
Default : Yes
Forced : No
Matrix coefficients : BT.709
Audio #1
ID : 2
Format : AC-3
Format/Info : Audio Coding 3
Mode extension : CM (complete main)
Format settings, Endianness : Big
Codec ID : A_AC3
Duration : 2h 9mn
Bit rate mode : Constant
Bit rate : 448 Kbps
Channel(s) : 6 channels
Channel positions : Front: L C R, Side: L R, LFE
Sampling rate : 48.0 KHz
Bit depth : 16 bits
Compression mode : Lossy
Stream size : 415 MiB (9%)
Title : Dub / DD 5.1, 48kHz, 448kbps
Language : Russian
Default : Yes
Forced : No
Audio #2
ID : 3
Format : AC-3
Format/Info : Audio Coding 3
Mode extension : CM (complete main)
Format settings, Endianness : Big
Codec ID : A_AC3
Duration : 2h 9mn
Bit rate mode : Constant
Bit rate : 448 Kbps
Channel(s) : 6 channels
Channel positions : Front: L C R, Side: L R, LFE
Sampling rate : 48.0 KHz
Bit depth : 16 bits
Compression mode : Lossy
Stream size : 415 MiB (9%)
Title : Original / DD 5.1, 48kHz, 448kbps
Language : English
Default : No
Forced : No
Text #1
ID : 4
Format : UTF-8
Codec ID : S_TEXT/UTF8
Codec ID/Info : UTF-8 Plain Text
Title : Full
Language : Russian
Default : No
Forced : No
Text #2
ID : 5
Format : UTF-8
Codec ID : S_TEXT/UTF8
Codec ID/Info : UTF-8 Plain Text
Title : Full
Language : English
Default : No
Forced : No
Menu
00:00:00.000 : en:Chapter 01
00:05:36.294 : en:Chapter 02
00:11:42.076 : en:Chapter 03
00:19:59.156 : en:Chapter 04
00:25:26.900 : en:Chapter 05
00:32:40.750 : en:Chapter 06
00:39:52.056 : en:Chapter 07
00:46:59.108 : en:Chapter 08
00:54:00.362 : en:Chapter 09
01:00:36.258 : en:Chapter 10
01:07:13.529 : en:Chapter 11
01:14:52.071 : en:Chapter 12
01:22:30.070 : en:Chapter 13
01:27:00.549 : en:Chapter 14
01:31:49.379 : en:Chapter 15
01:36:12.976 : en:Chapter 16
01:42:42.907 : en:Chapter 17
01:47:57.971 : en:Chapter 18
01:55:04.523 : en:Chapter 19
02:01:45.924 : en:Chapter 20

Скриншоты

[Цитировать]

Топик был перенесен из форума Новинки кинопроката в форум Драма
Henkok



Показать сообщения:    

Текущее время: 07-Дек 13:41

Часовой пояс: UTC + 3


Вы не можете начинать темы
Вы не можете отвечать на сообщения
Вы не можете редактировать свои сообщения
Вы не можете удалять свои сообщения
Вы не можете голосовать в опросах
Вы не можете прикреплять файлы к сообщениям
Вы не можете скачивать файлы

!ВНИМАНИЕ!
Сайт не предоставляет электронные версии произведений, а занимается лишь коллекционированием и каталогизацией ссылок, присылаемых и публикуемых на форуме нашими читателями. Если вы являетесь правообладателем какого-либо представленного материала и не желаете, чтобы ссылка на него находилась в нашем каталоге, свяжитесь с нами, и мы незамедлительно удалим ее. Файлы для обмена на трекере предоставлены пользователями сайта, и администрация не несет ответственности за их содержание. Просьба не заливать файлы, защищенные авторскими правами, а также файлы нелегального содержания!