[ Сегодня идет свободное скачивание без начисления Download ]


Статистика раздачи
Нет
 
   
 
Top  
 
 
Ну, погоди! Выпуски 1-16«Ну, заяц! Ну, погоди!»
Год выпуска: 1969-1986
Страна: СССР
Производство: Союзмультфильм
Жанр: мультфильм, комедия, семейный
Режиссер: Вячеслав Котеночкин
В ролях: Клара Румянова, Анатолий Папанов, Геннадий Хазанов, Владимир Сошальский, Игорь Христенко.
Перевод: Оригинал
Субтитры: Отсутствуют
Описание: Веселые приключения неразлучной парочки — хулигана Волка и смышленого Зайца. Любимые с детства сцены погонь, ссор и примирений, шутки и мелодии.
[kp]46483[/kp] [imdb]tt0234355[/imdb]

Знаете ли вы, что...

• Изначально роль волка должен был озвучивать Высоцкий, но его не одобрили «сверху».
• Свою знаменитую прическу и характерную внешность Волк приобрел только во втором выпуске мультфильма. В первом выпуске его прическа и внешность отличается от привычного зрителям варианта.

Ну, погоди! Выпуски 1-8

Качество: BDRemux
Продолжительность: 01:15:58
Формат: MKV
Видео кодек: MPEG-4 AVC (H.264)
Аудио кодек: AC3
Видео: 1920x1080i (16:9), 25,000 fps, 28,2 Mbps, 0,544 bit/pixel
Аудио: AC3, 48KHz, 6ch, 448 kbps
Главы: Есть

Media Info

Общее
Уникальный идентификатор                 : 194314936935716574026707792923935659704 (0x922FB210C900FA669DC061C1DCA056B8)
Полное имя                               : E:\torrentsclub.org\ну, погоди\Nu.Pogodi.1_16.1969_1986.BDRemux.1080i\Nu.Pogodi.1_8.1969_1974.BDRemux.1080i.mkv
Формат                                   : Matroska
Версия формата                           : Version 2
Размер файла                             : 15,5 Гбайт
Продолжительность                        : 1 ч. 15 м.
Режим общего битрейта                    : Переменный
Общий поток                              : 29,2 Мбит/сек
Название фильма                          : Ну, погоди! Выпуски 1-8
Дата кодирования                         : UTC 2012-11-24 05:59:53
Программа кодирования                    : mkvmerge v3.3.0 ('Language') сборка от May 14 2010 17:11:50
Библиотека кодирования                   : libebml v0.8.0 + libmatroska v0.9.0
Видео
Идентификатор                            : 1
Формат                                   : AVC
Формат/Информация                        : Advanced Video Codec
Профиль формата                          : [email protected]
Параметр CABAC формата                   : Да
Параметр ReFrames формата                : 3 кадра
Идентификатор кодека                     : V_MPEG4/ISO/AVC
Продолжительность                        : 1 ч. 15 м.
Вид битрейта                             : Переменный
Битрейт                                  : 28,2 Мбит/сек
Максимальный битрейт                     : 35,0 Мбит/сек
Ширина                                   : 1920 пикселей
Высота                                   : 1080 пикселей
Соотношение сторон                       : 16:9
Частота кадров                           : 25,000 кадров/сек
Стандарт вещания                         : NTSC
Цветовое пространство                    : YUV
Субдискретизация насыщенности            : 4:2:0
Битовая глубина                          : 8 бит
Тип развёртки                            : MBAFF
Бит/(Пиксели*Кадры)                      : 0.544
Размер потока                            : 15,0 Гбайт (96%)
Заголовок                                : torrentsclub.org
Default                                  : Да
Forced                                   : Нет
Основные цвета                           : BT.709-5, BT.1361, IEC 61966-2-4, SMPTE RP177
Характеристики трансфера                 : BT.709-5, BT.1361
Коэффициенты матрицы                     : BT.709-5, BT.1361, IEC 61966-2-4 709, SMPTE RP177
Аудио
Идентификатор                            : 2
Формат                                   : AC-3
Формат/Информация                        : Audio Coding 3
Расширение режима                        : CM (complete main)
Параметр Endianness формата              : Big
Идентификатор кодека                     : A_AC3
Продолжительность                        : 1 ч. 15 м.
Вид битрейта                             : Постоянный
Битрейт                                  : 448 Кбит/сек
Каналы                                   : 6 каналов
Расположение каналов                     : Front: L C R, Side: L R, LFE
Частота                                  : 48,0 КГц
Битовая глубина                          : 16 бит
Метод сжатия                             : С потерями
Размер потока                            : 243 Мбайт (2%)
Язык                                     : Russian
Default                                  : Да
Forced                                   : Да
Меню
00:00:00.000                             : en:
00:09:34.920                             : en:
00:19:11.720                             : en:
00:28:48.360                             : en:
00:37:51.880                             : en:
00:47:16.080                             : en:
00:56:57.000                             : en:
01:06:33.880                             : en:
01:15:55.760                             : en:

Скриншоты

Ну, погоди! Выпуски 9-16

Качество: BDRemux
Продолжительность: 01:16:44
Формат: MKV
Видео кодек: MPEG-4 AVC (H.264)
Аудио кодек: AC3
Видео: 1920x1080i (16:9), 25,000 fps, 28,4 Mbps, 0,547 bit/pixel
Аудио: AC3, 48KHz, 6ch, 448 kbps
Главы: Есть

Media Info

Общее
Уникальный идентификатор                 : 226889933247011845857463972796452446090 (0xAAB169620742D16C92D3C3E70CE21F8A)
Полное имя                               : E:\torrentsclub.org\ну, погоди\Nu.Pogodi.1_16.1969_1986.BDRemux.1080i\Nu.Pogodi.9_16.1976_1986.BDRemux.1080i.mkv
Формат                                   : Matroska
Версия формата                           : Version 2
Размер файла                             : 15,8 Гбайт
Продолжительность                        : 1 ч. 16 м.
Режим общего битрейта                    : Переменный
Общий поток                              : 29,4 Мбит/сек
Название фильма                          : Ну, погоди! Выпуски 9-16
Дата кодирования                         : UTC 2012-11-24 07:04:46
Программа кодирования                    : mkvmerge v3.3.0 ('Language') сборка от May 14 2010 17:11:50
Библиотека кодирования                   : libebml v0.8.0 + libmatroska v0.9.0
Видео
Идентификатор                            : 1
Формат                                   : AVC
Формат/Информация                        : Advanced Video Codec
Профиль формата                          : [email protected]
Параметр CABAC формата                   : Да
Параметр ReFrames формата                : 3 кадра
Идентификатор кодека                     : V_MPEG4/ISO/AVC
Продолжительность                        : 1 ч. 16 м.
Вид битрейта                             : Переменный
Битрейт                                  : 28,4 Мбит/сек
Максимальный битрейт                     : 35,0 Мбит/сек
Ширина                                   : 1920 пикселей
Высота                                   : 1080 пикселей
Соотношение сторон                       : 16:9
Частота кадров                           : 25,000 кадров/сек
Стандарт вещания                         : NTSC
Цветовое пространство                    : YUV
Субдискретизация насыщенности            : 4:2:0
Битовая глубина                          : 8 бит
Тип развёртки                            : MBAFF
Бит/(Пиксели*Кадры)                      : 0.547
Размер потока                            : 15,2 Гбайт (96%)
Заголовок                                : torrentsclub.org
Default                                  : Да
Forced                                   : Нет
Основные цвета                           : BT.709-5, BT.1361, IEC 61966-2-4, SMPTE RP177
Характеристики трансфера                 : BT.709-5, BT.1361
Коэффициенты матрицы                     : BT.709-5, BT.1361, IEC 61966-2-4 709, SMPTE RP177
Аудио
Идентификатор                            : 2
Формат                                   : AC-3
Формат/Информация                        : Audio Coding 3
Расширение режима                        : CM (complete main)
Параметр Endianness формата              : Big
Идентификатор кодека                     : A_AC3
Продолжительность                        : 1 ч. 16 м.
Вид битрейта                             : Постоянный
Битрейт                                  : 448 Кбит/сек
Каналы                                   : 6 каналов
Расположение каналов                     : Front: L C R, Side: L R, LFE
Частота                                  : 48,0 КГц
Битовая глубина                          : 16 бит
Метод сжатия                             : С потерями
Размер потока                            : 246 Мбайт (2%)
Язык                                     : Russian
Default                                  : Да
Forced                                   : Да
Меню
00:00:00.000                             : en:
00:09:23.400                             : en:
00:18:52.000                             : en:
00:28:19.600                             : en:
00:37:27.400                             : en:
00:46:45.200                             : en:
00:56:44.680                             : en:
01:06:45.240                             : en:
01:16:44.680                             : en:

Скриншоты

[Цитировать]



Показать сообщения:    

Текущее время: 04-Дек 21:27

Часовой пояс: UTC + 3


Вы не можете начинать темы
Вы не можете отвечать на сообщения
Вы не можете редактировать свои сообщения
Вы не можете удалять свои сообщения
Вы не можете голосовать в опросах
Вы не можете прикреплять файлы к сообщениям
Вы не можете скачивать файлы

!ВНИМАНИЕ!
Сайт не предоставляет электронные версии произведений, а занимается лишь коллекционированием и каталогизацией ссылок, присылаемых и публикуемых на форуме нашими читателями. Если вы являетесь правообладателем какого-либо представленного материала и не желаете, чтобы ссылка на него находилась в нашем каталоге, свяжитесь с нами, и мы незамедлительно удалим ее. Файлы для обмена на трекере предоставлены пользователями сайта, и администрация не несет ответственности за их содержание. Просьба не заливать файлы, защищенные авторскими правами, а также файлы нелегального содержания!