[ Сегодня идет свободное скачивание без начисления Download ]


Статистика раздачи
Нет
 
   
 
Top  
 
 
Оборотень: Зверь среди нас / Werewolf: The Beast Among Us
Страна: США
Жанр: ужасы, триллер
Год выпуска: 2012
Продолжительность: 01:33:23
Перевод #1: Профессиональный (дублированный)
Перевод #2: Любительский (двухголосый закадровый) den904 & DeadSno
Cубтитры: Русские (Full, Forced, antoniolagrande), английские (Full)
Оригинальная аудиодорожка: английский
Режиссер: Луи Морно / Louis Morneau
В ролях: Стивен Бауэр, Эд Куинн, Ниа Пиплз, Стивен Ри, Золтан Бутуч, Рэйчел ДиПилло, Ана Улару, Адам Кроусделл, Гай Уилсон, Разван Георгиу и др.
Описание: Действие фильма разворачивается в небольшой деревушке девятнадцатого века. Молодой человек, изучающий врачебное дело под руководством местного доктора, решает вступить в ряды охотников за оборотнями, когда жители деревни начинают гибнуть один за другим от лап неведомого зверя. Кто он, этот монстр? Один из жителей деревни или нечто совершенно неведомое? Человек днем, чудовище ночью.


Качество видео: BDRip-AVC
Формат видео: MKV
Видео: MPEG-4 AVC Video / 3193 Кбит/сек / 1120x630 / 23,976 / 16:9 / 0.189 bpp / High Profile 4.1
Аудио #1: AC3 / Dolby Digital Audio / 5.1 / 48 kHz / 384 kbps |Профессиональный (дублированный)|
Аудио #2: AC3 / Dolby Digital Audio / 5.1 / 48 kHz / 448 kbps |DVO(den904 & DeadSno)|
Аудио #3: AC3 / Dolby Digital Audio / 5.1 / 48 kHz / 448 kbps |Original|
Формат субтитров: softsub (SRT)

MediaInfo / x264

x264

[color=#006699]---[NoImage] avs [info]: 1120x630p 1:1 @ 24000/1001 fps (cfr)
---[NoImage] x264 [info]: using SAR=1/1
---[NoImage] x264 [info]: using cpu capabilities: MMX2 SSE2Fast SSSE3 FastShuffle SSE4.2 AVX
---[NoImage] x264 [info]: profile High, level 4.1
---[NoImage]
---[NoImage] x264 [info]: frame I:1301  Avg QP:13.97  size:125373
---[NoImage] x264 [info]: frame P:31302 Avg QP:17.16  size: 34078
---[NoImage] x264 [info]: frame B:101749 Avg QP:19.19  size:  9833
---[NoImage] x264 [info]: consecutive B-frames:  3.2%  3.7% 12.2% 17.7% 18.5% 35.1%  5.1%  0.9%  1.1%  0.7%  0.9%  0.3%  0.6%
---[NoImage] x264 [info]: mb I  I16..4:  9.0% 69.9% 21.1%
---[NoImage] x264 [info]: mb P  I16..4:  0.9% 10.9%  1.3%  P16..4: 31.3% 36.3% 10.6%  4.0%  0.4%    skip: 4.4%
---[NoImage] x264 [info]: mb B  I16..4:  0.0%  0.8%  0.1%  B16..8: 36.0% 21.2%  2.9%  direct: 4.8%  skip:34.1%  L0:41.9% L1:46.4% BI:11.7%
---[NoImage] x264 [info]: 8x8 transform intra:80.9% inter:57.1%
---[NoImage] x264 [info]: direct mvs  spatial:98.7% temporal:1.3%
---[NoImage] x264 [info]: coded y,uvDC,uvAC intra: 91.6% 88.4% 71.5% inter: 22.4% 22.9% 11.8%
---[NoImage] x264 [info]: i16 v,h,dc,p: 15%  7% 12% 65%
---[NoImage] x264 [info]: i8 v,h,dc,ddl,ddr,vr,hd,vl,hu: 12%  7%  6% 10% 14% 14% 13% 13% 13%
---[NoImage] x264 [info]: i4 v,h,dc,ddl,ddr,vr,hd,vl,hu: 15%  6%  4% 10% 15% 14% 13% 11% 12%
---[NoImage] x264 [info]: i8c dc,h,v,p: 46% 20% 18% 16%
---[NoImage] x264 [info]: Weighted P-Frames: Y:14.1% UV:9.1%
---[NoImage] x264 [info]: ref P L0: 50.2%  9.2% 18.2%  6.1%  4.7%  3.1%  2.7%  1.5%  1.4%  1.2%  1.2%  0.4%  0.1%
---[NoImage] x264 [info]: ref B L0: 77.6% 11.2%  4.5%  2.4%  1.4%  1.1%  0.8%  0.5%  0.3%  0.2%
---[NoImage] x264 [info]: ref B L1: 93.0%  7.0%
---[NoImage] x264 [info]: kb/s:3184.10
---[NoImage] encoded 134352 frames, 4.17 fps, 3184.10 kb/s[/color]
Общее
Уникальный идентификатор         : 228800924886578780544766558261244749461 (0xAC21748B8AFB8280A8CC77A2D3226695)
Полное имя                       : E:\Werewolf_The Beast Among Us.2012.BDRip-AVC_[rutracker.org]_by_Deerhoof.mkv
Формат                           : Matroska
Версия формата                   : Version 2
Размер файла                     : 2,91 Гбайт
Продолжительность                : 1 ч. 33 м.
Общий поток                      : 4467 Кбит/сек
Название фильма                  : Werewolf_The Beast Among Us.2012
Дата кодирования                 : UTC 2012-12-20 13:11:43
Программа кодирования            : mkvmerge v5.8.0 ('No Sleep / Pillow') built on Sep  2 2012 15:37:04
Библиотека кодирования           : libebml v1.2.3 + libmatroska v1.3.0
Видео
Идентификатор                    : 1
Формат                           : AVC
Формат/Информация                : Advanced Video Codec
Профиль формата                  : [email protected]
Параметр CABAC формата           : Да
Параметр ReFrames формата        : 11 кадров
Идентификатор кодека             : V_MPEG4/ISO/AVC
Продолжительность                : 1 ч. 33 м.
Битрейт                          : 3193 Кбит/сек
Ширина                           : 1120 пикселей
Высота                           : 630 пикселей
Соотношение сторон               : 16:9
Частота кадров                   : 23,976 кадра/сек
Цветовое пространство            : YUV
Субдискретизация насыщенности    : 4:2:0
Битовая глубина                  : 8 бит
Тип развёртки                    : Прогрессивная
Бит/(Пиксели*Кадры)              : 0.189
Размер потока                    : 2,02 Гбайт (69%)
Заголовок                        : Werewolf_The Beast Among Us.2012.BDRip-AVC_[rutracker.org]_by_Deerhoof
Библиотека кодирования           : x264 core 125 r2200 999b753
Настройки программы              : cabac=1 / ref=11 / deblock=1:-3:-2 / analyse=0x3:0x133 / me=umh / subme=11 / psy=1 / psy_rd=1.00:0.05 / mixed_ref=1 / me_range=48 / chroma_me=1 / trellis=2 / 8x8dct=1 / cqm=0 / deadzone=21,11 / fast_pskip=0 / chroma_qp_offset=-3 / threads=6 / lookahead_threads=1 / sliced_threads=0 / nr=0 / decimate=0 / interlaced=0 / bluray_compat=0 / constrained_intra=0 / bframes=12 / b_pyramid=2 / b_adapt=2 / b_bias=0 / direct=3 / weightb=1 / open_gop=0 / weightp=2 / keyint=240 / keyint_min=23 / scenecut=40 / intra_refresh=0 / rc=2pass / mbtree=0 / bitrate=3193 / ratetol=1.0 / qcomp=0.60 / qpmin=0 / qpmax=69 / qpstep=4 / cplxblur=20.0 / qblur=0.5 / ip_ratio=1.40 / pb_ratio=1.30 / aq=2:0.80
Язык                             : English
Коэффициенты матрицы             : BT.709-5, BT.1361, IEC 61966-2-4 709, SMPTE RP177
Аудио #1
Идентификатор                    : 2
Формат                           : AC-3
Формат/Информация                : Audio Coding 3
Расширение режима                : CM (complete main)
Идентификатор кодека             : A_AC3
Продолжительность                : 1 ч. 33 м.
Вид битрейта                     : Постоянный
Битрейт                          : 384 Кбит/сек
Каналы                           : 6 каналов
Расположение каналов             : Front: L C R, Side: L R, LFE
Частота                          : 48,0 КГц
Битовая глубина                  : 16 бит
Метод сжатия                     : С потерями
Размер потока                    : 257 Мбайт (9%)
Заголовок                        : Профессиональный (дублированный)
Язык                             : Russian
Аудио #2
Идентификатор                    : 3
Формат                           : AC-3
Формат/Информация                : Audio Coding 3
Расширение режима                : CM (complete main)
Идентификатор кодека             : A_AC3
Продолжительность                : 1 ч. 33 м.
Вид битрейта                     : Постоянный
Битрейт                          : 448 Кбит/сек
Каналы                           : 6 каналов
Расположение каналов             : Front: L C R, Side: L R, LFE
Частота                          : 48,0 КГц
Битовая глубина                  : 16 бит
Метод сжатия                     : С потерями
Размер потока                    : 299 Мбайт (10%)
Заголовок                        : Любительский (двухголосый закадровый) den904 & DeadSno
Язык                             : Russian
Аудио #3
Идентификатор                    : 4
Формат                           : AC-3
Формат/Информация                : Audio Coding 3
Расширение режима                : CM (complete main)
Идентификатор кодека             : A_AC3
Продолжительность                : 1 ч. 33 м.
Вид битрейта                     : Постоянный
Битрейт                          : 448 Кбит/сек
Каналы                           : 6 каналов
Расположение каналов             : Front: L C R, Side: L R, LFE
Частота                          : 48,0 КГц
Битовая глубина                  : 16 бит
Метод сжатия                     : С потерями
Размер потока                    : 299 Мбайт (10%)
Язык                             : English
Текст #1
Идентификатор                    : 5
Формат                           : UTF-8
Идентификатор кодека             : S_TEXT/UTF8
Идентификатор кодека/Информация  : UTF-8 Plain Text
Заголовок                        : Forced
Язык                             : Russian
Текст #2
Идентификатор                    : 6
Формат                           : UTF-8
Идентификатор кодека             : S_TEXT/UTF8
Идентификатор кодека/Информация  : UTF-8 Plain Text
Заголовок                        : Full
Язык                             : Russian
Текст #3
Идентификатор                    : 7
Формат                           : UTF-8
Идентификатор кодека             : S_TEXT/UTF8
Идентификатор кодека/Информация  : UTF-8 Plain Text
Заголовок                        : antoniolagrande
Язык                             : Russian
Текст #4
Идентификатор                    : 8
Формат                           : UTF-8
Идентификатор кодека             : S_TEXT/UTF8
Идентификатор кодека/Информация  : UTF-8 Plain Text
Язык                             : English
Меню
00:00:00.000                     : en:
00:03:40.886                     : en:
00:08:21.083                     : en:
00:13:13.250                     : en:
00:16:07.508                     : en:
00:21:14.022                     : en:
00:26:29.713                     : en:
00:31:57.748                     : en:
00:36:37.069                     : en:
00:41:07.256                     : en:
00:46:22.571                     : en:
00:51:03.810                     : en:
00:54:51.621                     : en:
00:58:31.131                     : en:
01:04:22.608                     : en:
01:07:55.821                     : en:
01:13:54.847                     : en:
01:17:14.254                     : en:
01:21:19.040                     : en:
01:26:37.149                     : en:

Скриншоты


[Цитировать]



Показать сообщения:    

Текущее время: 05-Дек 05:31

Часовой пояс: UTC + 3


Вы не можете начинать темы
Вы не можете отвечать на сообщения
Вы не можете редактировать свои сообщения
Вы не можете удалять свои сообщения
Вы не можете голосовать в опросах
Вы не можете прикреплять файлы к сообщениям
Вы не можете скачивать файлы

!ВНИМАНИЕ!
Сайт не предоставляет электронные версии произведений, а занимается лишь коллекционированием и каталогизацией ссылок, присылаемых и публикуемых на форуме нашими читателями. Если вы являетесь правообладателем какого-либо представленного материала и не желаете, чтобы ссылка на него находилась в нашем каталоге, свяжитесь с нами, и мы незамедлительно удалим ее. Файлы для обмена на трекере предоставлены пользователями сайта, и администрация не несет ответственности за их содержание. Просьба не заливать файлы, защищенные авторскими правами, а также файлы нелегального содержания!