[ Сегодня идет свободное скачивание без начисления Download ]


Статистика раздачи
Нет
 
   
 
Top  
 
 
Клокло / Cloclo-
  • Страна: Франция, Бельгия | LGM Productions, Fl?che Productions, 24C Prod
  • Жанр:Драма, Музыка, Биография
  • Год выпуска: 2012
  • Продолжительность:02:28:40-Перевод:Одноголосый закадровый [Сергей Калугин] перевод [Janetta]
  • Cубтитры: нет
  • Режиссер: Флоран Эмилио Сири / Florent Emilio Siri-
  • В ролях:Жереми Ренье, Бенуа Мажимель, Моника Скаттини, Сабрина Сейвеку, Ана Жирардо, Жозефин Джепи, Марк Барбе, Эрик Савен, Софи Майстер-
  • Описание:
    История жизни известного французского певца 60-х и 70-х Клода Франсуа по прозвищу Клокло вплоть до его трагической гибели 11 марта 1978 года в возрасте 39 лет.- -
    -
    -
  • Качество видео: HDRip
  • Формат видео: AVI
  • Исходник BDRip 720p
  • Видео: Xvid 720x304 24.00fps 1520 kb/s
  • Аудио:Dolby AC3 48000Hz 6ch 448Kbps

MediaInfo

Полное имя : G:\000 Фильмы Экранки\Клокло Cloclo (2012) HDRip\Cloclo.2012.L2.HDRip.2100MB
Формат : AVI
Формат/Информация : Audio Video Interleave
Размер файла : 2,05 Гбайт
Продолжительность : 2 ч. 28 м.
Общий поток : 1978 Кбит/сек
Программа кодирования : VirtualDubMod 1.5.10.2 (build 2540/release)
Библиотека кодирования : VirtualDubMod build 2540/release
Видео
Идентификатор : 0
Формат : MPEG-4 Visual
Профиль формата : Advanced Simple@L5
Параметр BVOP формата : 2
Параметр QPel формата : Нет
Параметр GMC формата : Без точки перехода
Параметр матрицы формата : Default (MPEG)
Идентификатор кодека : XVID
Идентификатор кодека/Подсказка : XviD
Продолжительность : 2 ч. 28 м.
Битрейт : 1521 Кбит/сек
Ширина : 720 пикселей
Высота : 304 пикселя
Соотношение сторон : 2,35:1
Частота кадров : 24,000 кадра/сек
Цветовое пространство : YUV
Субдискретизация насыщенности : 4:2:0
Битовая глубина : 8 бит
Тип развёртки : Прогрессивная
Метод сжатия : С потерями
Бит/(Пиксели*Кадры) : 0.290
Размер потока : 1,58 Гбайт (77%)
Библиотека кодирования : XviD 1.2.1 (UTC 2008-12-04)
Аудио
Идентификатор : 1
Формат : AC-3
Формат/Информация : Audio Coding 3
Расширение режима : CM (complete main)
Параметр Endianness формата : Big
Идентификатор кодека : 2000
Продолжительность : 2 ч. 28 м.
Вид битрейта : Постоянный
Битрейт : 448 Кбит/сек
Каналы : 6 каналов
Расположение каналов : Front: L C R, Side: L R, LFE
Частота : 48,0 КГц
Битовая глубина : 16 бит
Метод сжатия : С потерями
Размер потока : 476 Мбайт (23%)
Выравнивание : Разделение по промежуткам
Продолжительность промежутка : 42 мс. (1,00 видеокадр)
Время предзагрузки промежутка : 500 мс.

Скриншоты


[Цитировать]



Показать сообщения:    

Текущее время: 09-Дек 06:55

Часовой пояс: UTC + 3


Вы не можете начинать темы
Вы не можете отвечать на сообщения
Вы не можете редактировать свои сообщения
Вы не можете удалять свои сообщения
Вы не можете голосовать в опросах
Вы не можете прикреплять файлы к сообщениям
Вы не можете скачивать файлы

!ВНИМАНИЕ!
Сайт не предоставляет электронные версии произведений, а занимается лишь коллекционированием и каталогизацией ссылок, присылаемых и публикуемых на форуме нашими читателями. Если вы являетесь правообладателем какого-либо представленного материала и не желаете, чтобы ссылка на него находилась в нашем каталоге, свяжитесь с нами, и мы незамедлительно удалим ее. Файлы для обмена на трекере предоставлены пользователями сайта, и администрация не несет ответственности за их содержание. Просьба не заливать файлы, защищенные авторскими правами, а также файлы нелегального содержания!