[ Сегодня идет свободное скачивание без начисления Download ]


Статистика раздачи
Нет
 
   
 
Top  
 
 
Охотники 2 / J?garna 2
Страна: Швеция
Жанр: триллер, криминал, детектив
Год выпуска: 2011
Продолжительность: 02:05:00
Перевод: Любительский (двухголосый закадровый) ViruseProject
Cубтитры: нет
Режиссер: Челль Сундвалль / Kjell Sundvall
В ролях: Рольф Лассгард, Петер Стормаре (т/с "Побег", к/ф - "Плохие парни 2, 8 миллиметров, «Весёлые» каникулы"), Анника Нордин, Kim Tjernstr?m, Lo Kauppi, Jesper Barkselius, Ээро Милонофф, Йохан Полсен, Ellenor Lindgren, Olov H?ggmark и др.
Описание: Прошло 15 лет с трагического инцидента после которого Эрик вынужден был оставить службу на севере Швеции. Но жестокое преступление вынуждает его вернуться. Но то, что первоначально казалось обычной командировкой, постепенно превращается в кошмар, хуже которого нечего и представить.


СЕМПЛ
Качество видео: HDRip
Формат видео: AVI
Видео: 720x320 (2.25:1), 25 fps, XviD MPEG-4 ~1283 kbps avg, 0.22 bit/pixel
Аудио: 48 kHz, AC3 Dolby Digital, 3/2 (L,C,R,l,r) + LFE ch, ~384 kbps

MediaInfo

D:\ОЗВУЧКА\ГОТОВОЕ\ФИЛЬМЫ\ОХОТНИКИ 2\Ohotniki.2.2011.ViruseProject.avi
General
Complete name : D:\ОЗВУЧКА\ГОТОВОЕ\ФИЛЬМЫ\ОХОТНИКИ 2\Ohotniki.2.2011.ViruseProject.avi
Format : AVI
Format/Info : Audio Video Interleave
File size : 1.46 GiB
Duration : 2h 5mn
Overall bit rate : 1 677 Kbps
Writing application : VirtualDubMod 1.5.10.2 (build 2540/release)
Writing library : VirtualDubMod build 2540/release
Video #0
ID : 0
Format : MPEG-4 Visual
Format profile : Advanced [email protected]
Format settings, BVOP : 1
Format settings, QPel : No
Format settings, GMC : No warppoints
Format settings, Matrix : Custom
Muxing mode : Packed bitstream
Codec ID : XVID
Codec ID/Hint : XviD
Duration : 2h 5mn
Bit rate : 1 284 Kbps
Width : 720 pixels
Height : 320 pixels
Display aspect ratio : 2.25:1
Frame rate : 25.000 fps
Color space : YUV
Chroma subsampling : 4:2:0
Bit depth : 8 bits
Scan type : Progressive
Compression mode : Lossy
Bits/(Pixel*Frame) : 0.223
Stream size : 1.12 GiB (77%)
Writing library : XviD 1.2.1 (UTC 2008-12-04)
Audio #1
ID : 1
Format : AC-3
Format/Info : Audio Coding 3
Mode extension : CM (complete main)
Format settings, Endianness : Big
Codec ID : 2000
Duration : 2h 5mn
Bit rate mode : Constant
Bit rate : 384 Kbps
Channel(s) : 6 channels
Channel positions : Front: L C R, Side: L R, LFE
Sampling rate : 48.0 KHz
Bit depth : 16 bits
Compression mode : Lossy
Stream size : 343 MiB (23%)
Alignment : Split accross interleaves
Interleave, duration : 40 ms (1.00 video frame)
Interleave, preload duration : 500 ms

Скриншоты

[Цитировать]



Показать сообщения:    

Текущее время: 04-Дек 23:25

Часовой пояс: UTC + 3


Вы не можете начинать темы
Вы не можете отвечать на сообщения
Вы не можете редактировать свои сообщения
Вы не можете удалять свои сообщения
Вы не можете голосовать в опросах
Вы не можете прикреплять файлы к сообщениям
Вы не можете скачивать файлы

!ВНИМАНИЕ!
Сайт не предоставляет электронные версии произведений, а занимается лишь коллекционированием и каталогизацией ссылок, присылаемых и публикуемых на форуме нашими читателями. Если вы являетесь правообладателем какого-либо представленного материала и не желаете, чтобы ссылка на него находилась в нашем каталоге, свяжитесь с нами, и мы незамедлительно удалим ее. Файлы для обмена на трекере предоставлены пользователями сайта, и администрация не несет ответственности за их содержание. Просьба не заливать файлы, защищенные авторскими правами, а также файлы нелегального содержания!