[ Сегодня идет свободное скачивание без начисления Download ]


Статистика раздачи
Нет
 
   
 
Top  
 
 
Ночь тамплиера / Night of the Templar- -Страна: США / Sampson Enterprises
Жанр: Ужасы, фантастика, боевик, триллер
Год выпуска: 2012
Продолжительность: 01:37:22-Перевод: Профессиональный (многоголосый закадровый)
Cубтитры: нет
Режиссер: Пол Сэмпсон / Paul Sampson-В ролях: Пол Сэмпсон, Дэвид Кэрредин, Удо Кир, Норман Ридус, Билли Драго, Макс Перлих, Ник Джеймисон, Джек Доннер, Ингрид Сонрэй, Лиза Глив-Описание: Средневековый рыцарь возрождается из мертвых после семисотлетнего отсутствия с желанием выполнить свою клятву: он жаждет кровопролития и мести тем, кто предал его в прошлом. В течение ночи обидчики будут раскрыты: они встретят свое судьбоносное возмездие...- -Доп. информация: -Качество видео: DVDRip
Формат видео: AVI
Видео: XviD, 1651 Кбит/с, 720x384, 25.000 fps, 0.24 bit/pixel
Аудио: 48.0 KHz, AC3, 2 ch, 224 Кбит/с) - Русский
Аудио 2: 48.0 KHz, AC3, 2 ch, 256 Кбит/с - английский

MediaInfo

General
Complete name : D:\Torrents\Noch.tampliera.2012.P.DVDRip.avi
Format : AVI
Format/Info : Audio Video Interleave
File size : 1.45 GiB
Duration : 1h 37mn
Overall bit rate : 2 138 Kbps
Writing application : VirtualDubMod 1.5.10.2 (build 2540/release)
Writing library : VirtualDubMod build 2540/release
Video #0
ID : 0
Format : MPEG-4 Visual
Format profile : AdvancedSimple@L5
Format settings, BVOP : Yes
Format settings, QPel : No
Format settings, GMC : No warppoints
Format settings, Matrix : Default (H.263)
Codec ID : XVID
Codec ID/Hint : XviD
Duration : 1h 37mn
Bit rate : 1 651 Kbps
Width : 720 pixels
Height : 384 pixels
Display aspect ratio : 1.875
Frame rate : 25.000 fps
Resolution : 24 bits
Colorimetry : 4:2:0
Scan type : Progressive
Bits/(Pixel*Frame) : 0.239
Stream size : 1.12 GiB (77%)
Writing library : XviD 1.2.1 (UTC 2008-12-04)
Audio #1
ID : 1
Format : AC-3
Format/Info : Audio Coding 3
Codec ID : 2000
Duration : 1h 34mn
Bit rate mode : Constant
Bit rate : 224 Kbps
Channel(s) : 2 channels
Channel positions : L R
Sampling rate : 48.0 KHz
Stream size : 151 MiB (10%)
Alignment : Split accross interleaves
Interleave, duration : 41 ms (1.03 video frame)
Interleave, preload duration : 500 ms
Audio #2
ID : 2
Format : AC-3
Format/Info : Audio Coding 3
Codec ID : 2000
Duration : 1h 37mn
Bit rate mode : Constant
Bit rate : 256 Kbps
Channel(s) : 2 channels
Channel positions : L R
Sampling rate : 48.0 KHz
Stream size : 178 MiB (12%)
Alignment : Split accross interleaves
Interleave, duration : 40 ms (1.00 video frame)
Interleave, preload duration : 500 ms

Скриншоты

[Цитировать]



Показать сообщения:    

Текущее время: 09-Дек 18:29

Часовой пояс: UTC + 3


Вы не можете начинать темы
Вы не можете отвечать на сообщения
Вы не можете редактировать свои сообщения
Вы не можете удалять свои сообщения
Вы не можете голосовать в опросах
Вы не можете прикреплять файлы к сообщениям
Вы не можете скачивать файлы

!ВНИМАНИЕ!
Сайт не предоставляет электронные версии произведений, а занимается лишь коллекционированием и каталогизацией ссылок, присылаемых и публикуемых на форуме нашими читателями. Если вы являетесь правообладателем какого-либо представленного материала и не желаете, чтобы ссылка на него находилась в нашем каталоге, свяжитесь с нами, и мы незамедлительно удалим ее. Файлы для обмена на трекере предоставлены пользователями сайта, и администрация не несет ответственности за их содержание. Просьба не заливать файлы, защищенные авторскими правами, а также файлы нелегального содержания!