[ Today is free to download without increasing Download ]

DL-List and Torrent activity
Конец светаFin- Страна: Испания
Жанр: триллер
Год выпуска: 2012
Продолжительность: 01:32:50-Перевод: Профессиональный (многоголосый, закадровый)
Режиссер: Хорхе Торрегросса / Jorge Torregrossa
В ролях: Микель Фернандез , Антонио Гарридо , Даниель Грао , Клара Лаго , Эудженио Мира , Бланка Ромеро , Кармен Руис , Андрес Веленкозо , Марибель Верду-Описание: Друзья собираются вместе провести выходные в горной хижине. Однако странное явление полностью меняет планы, оставляя их без связи с внешним миром. По дороге за помощью они отдаляются друг от друга, так как происходящее вокруг оказывает на них сильное влияние.-- -Качество: HDRip (Исходник BDRip 720p)
Контейнер: AVI
Видео: XviD, 720x304 (2.35:1), 1793 kbps, 24 fps, 0,341 bpp
Аудио: AC3 / 5.1 / 48 kHz / 448 kbps / 16 bit-

Media Info

Complete name : F:\Konec.sveta.2012.P_HDRip.avi
Format : AVI
Format/Info : Audio Video Interleave
File size : 1.46 GiB
Duration : 1h 32mn
Overall bit rate : 2 251 Kbps
Movie name : Konec.sveta.2012.P.HDRip
Genre : Thriller
Writing application : VirtualDubMod | www.virtualdub-fr.org || (build 2550/release)
Original source form/Name : Movie
ID : 0
Format : MPEG-4 Visual
Format profile : Advanced Simple@L5
Format settings, BVOP : 1
Format settings, QPel : No
Format settings, GMC : No warppoints
Format settings, Matrix : Custom
Codec ID : XVID
Codec ID/Hint : XviD
Duration : 1h 32mn
Bit rate : 1 794 Kbps
Width : 720 pixels
Height : 304 pixels
Display aspect ratio : 2.35:1
Frame rate : 24.000 fps
Color space : YUV
Chroma subsampling : 4:2:0
Bit depth : 8 bits
Scan type : Progressive
Compression mode : Lossy
Bits/(Pixel*Frame) : 0.341
Stream size : 1.16 GiB (80%)
Writing library : XviD 1.2.1 (UTC 2008-12-04)
ID : 1
Format : AC-3
Format/Info : Audio Coding 3
Mode extension : CM (complete main)
Codec ID : 2000
Duration : 1h 32mn
Bit rate mode : Constant
Bit rate : 448 Kbps
Channel(s) : 6 channels
Channel positions : Front: L C R, Side: L R, LFE
Sampling rate : 48.0 KHz
Bit depth : 16 bits
Compression mode : Lossy
Stream size : 297 MiB (20%)
Alignment : Split accross interleaves
Interleave, duration : 42 ms (1.00 video frame)
Interleave, preload duration : 500 ms



Топик был перенесен из форума Новинки кинопроката в форум Триллер

Display posts:    

Current time is: 24-Oct 23:07

All times are UTC + 3

You cannot post new topics in this forum
You cannot reply to topics in this forum
You cannot edit your posts in this forum
You cannot delete your posts in this forum
You cannot vote in polls in this forum
You cannot attach files in this forum
You cannot download files in this forum

The site does not give electronic versions of products, and is engaged only in a collecting and cataloguing of the references sent and published at a forum by our readers. If you are the legal owner of any submitted material and do not wish that the reference to it was in our catalogue, contact us and we shall immediately remove her. Files for an exchange on tracker are given by users of a site, and the administration does not bear the responsibility for their maintenance. The request to not fill in the files protected by copyrights, and also files of the illegal maintenance!