[ Сегодня идет свободное скачивание без начисления Download ]


Статистика раздачи
Нет
 
   
 
Top  
 
 
Сейчас самое времяNow Is Good«Живи. Люби. Мечтай.»- Страна: Великобритания
Жанр: мелодрама
Год выпуска: 2012
Продолжительность: 01:42:45-Перевод: Профессиональный (полное дублирование) [Лицензия]
Субтитры: нет
Режиссер: Ол Паркер / Ol Parker
В ролях: Дакота Фаннинг, Джереми Ирвин, Пэдди Консидайн, Оливия Уильямс, Кая Скоделарио, Роуз Лесли, Сара Хэдлэнд, Джо Коул, Рэки Айола, Патрик Балади, Франц Драмех, Сьюзэн Браун-Описание: Тессе семнадцать, и она хочет жить нормальной жизнью. Она мечтает о тех же вещах, что и все подростки. Но что делать, если времени осталось мало? Тесса принимает решение, прожить все, что отмерено, так, чтобы ни одна минута не пропала зря.
Девушка составляет список того, что обязательно нужно успеть: потерять невинность, попробовать наркотики, прыгнуть с парашютом, по-настоящему полюбить. Она шаг за шагом воплощает свои намерения. Но внезапно вспыхнувшее чувство к соседскому парню Адаму меняет все ее планы.-

Доп. Информация

Сценарий: Ол Паркер / Ol Parker, Дженни Даунхэм / Jenny Downham
Продюсер: Грэхэм Броадбент / Graham Broadbent, Питер Чернин / Peter Czernin, Малина ДеКарло / Malina DeCarlo, Дженни Даунхэм / Jenny Downham, Питер Хэмпден / Peter Hampden
Оператор: Эрик Уилсон / Erik Wilson
Композитор: Дастин О’Халлоран / Dustin O'Halloran
Сборы в России: $225 209
Мировая премьера: 31 августа 2012
Релиз на DVD: 24 января 2013, «CP Дистрибуция»
Релиз на Blu-ray: 24 января 2013, «CP Дистрибуция»
-Качество: BDRip [Рип с Bluray]
Контейнер: AVI
Видео: XviD, 720x304 (2.35:1), 818 kbps, 24 fps, 0,156 bpp
Аудио: MP3 / 2.0 / 48 kHz / 128 kbps /-

Знаете ли Вы, что...

  • Фильм основан на книге Дженни Даунхэм «Пока я жива».
  • Наоми Уоттс могла сыграть мать, но роль получила Оливия Уильямс.
  • В романе, по которому снят фильм, у персонажа Тессы каштановые волосы. Оливия Уильямс, которая играет мать Тессы, носила в фильме парик блондинки, так что Дакоте Фаннинг не пришлось менять цвет волос для своей роли.

Media Info

General
Complete name : D:\Seychas.samoe.vremya.2012.D.HDRip.700.avi
Format : AVI
Format/Info : Audio Video Interleave
File size : 702 MiB
Duration : 1h 42mn
Overall bit rate : 955 Kbps
Writing application : VirtualDubMod 1.5.10.2 (build 2542/release)
Writing library : VirtualDubMod build 2542/release
Video
ID : 0
Format : MPEG-4 Visual
Format profile : Advanced Simple@L5
Format settings, BVOP : 2
Format settings, QPel : No
Format settings, GMC : No warppoints
Format settings, Matrix : Default (MPEG)
Codec ID : XVID
Codec ID/Hint : XviD
Duration : 1h 42mn
Bit rate : 818 Kbps
Width : 720 pixels
Height : 304 pixels
Display aspect ratio : 2.35:1
Frame rate : 24.000 fps
Color space : YUV
Chroma subsampling : 4:2:0
Bit depth : 8 bits
Scan type : Progressive
Compression mode : Lossy
Bits/(Pixel*Frame) : 0.156
Stream size : 601 MiB (86%)
Writing library : XviD 1.2.1 (UTC 2008-12-04)
Audio
ID : 1
Format : MPEG Audio
Format version : Version 1
Format profile : Layer 3
Mode : Joint stereo
Mode extension : MS Stereo
Codec ID : 55
Codec ID/Hint : MP3
Duration : 1h 42mn
Bit rate mode : Constant
Bit rate : 128 Kbps
Channel(s) : 2 channels
Sampling rate : 48.0 KHz
Compression mode : Lossy
Stream size : 94.1 MiB (13%)
Alignment : Aligned on interleaves
Interleave, duration : 42 ms (1.00 video frame)
Interleave, preload duration : 504 ms
Writing library : LAME3.99r
Encoding settings : -m j -V 4 -q 2 -lowpass 17 -b 128

Скриншоты

[Цитировать]



Показать сообщения:    

Текущее время: 10-Дек 19:41

Часовой пояс: UTC + 3


Вы не можете начинать темы
Вы не можете отвечать на сообщения
Вы не можете редактировать свои сообщения
Вы не можете удалять свои сообщения
Вы не можете голосовать в опросах
Вы не можете прикреплять файлы к сообщениям
Вы не можете скачивать файлы

!ВНИМАНИЕ!
Сайт не предоставляет электронные версии произведений, а занимается лишь коллекционированием и каталогизацией ссылок, присылаемых и публикуемых на форуме нашими читателями. Если вы являетесь правообладателем какого-либо представленного материала и не желаете, чтобы ссылка на него находилась в нашем каталоге, свяжитесь с нами, и мы незамедлительно удалим ее. Файлы для обмена на трекере предоставлены пользователями сайта, и администрация не несет ответственности за их содержание. Просьба не заливать файлы, защищенные авторскими правами, а также файлы нелегального содержания!