[ Сегодня идет свободное скачивание без начисления Download ]


Статистика раздачи
Нет
 
   
 
Top  
 
 
Жизнь в военное время / Life During Wartime«'Счастье'... 10 лет спустя»
Год выпуска: 2009
Страна: США
Производство: Werc Werk Works
Жанр: Драма, Комедия
Режиссер: Тодд Солондз
В ролях: Ширли Хендерсон, Майкл К. Уильямс, Эллисон Джэнни, Майкл Лернер, Киаран Хайндс, Пол Рубенс, Рослин Рафф, Дилан Райли Снайдер, Рене Тейлор, Ребекка Чайлз
Перевод: Профессиональный (двухголосый)
Субтитры: Отсутствуют
Описание: Женщина по имени Триш по-настоящему мечтает лишь о том, чтобы ее новый муж стал хорошим приемным отцом двух ее сыновей. Ведь настоящий отец мальчиков Билл — педофил, и это не лучший пример для подражания. А когда Билл выходит из тюрьмы, перед семейством стоит сложная задача — понять, простить или забыть. Призраки прошлого преследуют членов этой большой семьи, но все они ищут одного — любви и понимания…
[kp]397565[/kp] [imdb]tt0808526[/imdb]
Качество: DVDRip
Продолжительность: 01:37:31
Формат: AVI
Видео кодек: XviD
Аудио кодек: AC3
Видео: 720x384 (1,875:1), 23,976 fps, XviD ~1615 kbps avg, 0.244 bit/pixel
Аудио: 48 kHz, AС3, 6 ch, ~384 kbps avg
Премьера (мир): 3 сентября 2009
Премьера (РФ): 28 октября 2010, «Кино без границ»

Media Info

Видео
Идентификатор                            : 0
Формат                                   : MPEG-4 Visual
Профиль формата                          : Advanced Simple@L5
Параметр BVOP формата                    : 2
Параметр QPel формата                    : Нет
Параметр GMC формата                     : Без точки перехода
Параметр матрицы формата                 : Выборочная
Идентификатор кодека                     : XVID
Идентификатор кодека/Подсказка           : XviD
Продолжительность                        : 1 ч. 37 м.
Битрейт                                  : 1615 Кбит/сек
Ширина                                   : 720 пикселей
Высота                                   : 384 пикселя
Соотношение сторон                       : 1,875
Частота кадров                           : 23,976 кадра/сек
Цветовое пространство                    : YUV
Субдискретизация насыщенности            : 4:2:0
Битовая глубина                          : 8 бит
Тип развёртки                            : Прогрессивная
Метод сжатия                             : С потерями
Бит/(Пиксели*Кадры)                      : 0.244
Размер потока                            : 1,10 Гбайт (80%)
Библиотека кодирования                   : XviD 58
Аудио
Идентификатор                            : 1
Формат                                   : AC-3
Формат/Информация                        : Audio Coding 3
Расширение режима                        : CM (complete main)
Идентификатор кодека                     : 2000
Продолжительность                        : 1 ч. 37 м.
Вид битрейта                             : Постоянный
Битрейт                                  : 384 Кбит/сек
Каналы                                   : 6 каналов
Расположение каналов                     : Front: L C R, Side: L R, LFE
Частота                                  : 48,0 КГц
Битовая глубина                          : 16 бит
Метод сжатия                             : С потерями
Размер потока                            : 268 Мбайт (19%)
Выравнивание                             : Разделение по промежуткам
Продолжительность промежутка             : 42  мс. (1,00 видеокадр)
Время предзагрузки промежутка            : 500  мс.

Скриншоты



[Цитировать]



Показать сообщения:    

Текущее время: 08-Дек 09:06

Часовой пояс: UTC + 3


Вы не можете начинать темы
Вы не можете отвечать на сообщения
Вы не можете редактировать свои сообщения
Вы не можете удалять свои сообщения
Вы не можете голосовать в опросах
Вы не можете прикреплять файлы к сообщениям
Вы не можете скачивать файлы

!ВНИМАНИЕ!
Сайт не предоставляет электронные версии произведений, а занимается лишь коллекционированием и каталогизацией ссылок, присылаемых и публикуемых на форуме нашими читателями. Если вы являетесь правообладателем какого-либо представленного материала и не желаете, чтобы ссылка на него находилась в нашем каталоге, свяжитесь с нами, и мы незамедлительно удалим ее. Файлы для обмена на трекере предоставлены пользователями сайта, и администрация не несет ответственности за их содержание. Просьба не заливать файлы, защищенные авторскими правами, а также файлы нелегального содержания!