[ Today is free to download without increasing Download ]

DL-List and Torrent activity
Косяки / Loosies
Страна: США
Жанр: драма, мелодрама, комедия
Год выпуска: 2012
Продолжительность: 01:27:17
Перевод: Любительский (многоголосый закадровый) Доп. инфо о переводе Renegade team & AnilibriaTV
Cубтитры: нет
Режиссер: Майкл Корренте / Michael Corrente
В ролях: Питер Фачинелли, Джейми Александр, Майкл Мэдсен, Винсент Галло, Джо Пантольяно, Уильям Форсайт, Марианн Леоне, Кристи Карлсон Романо...
Описание: Бобби — вор-карманник, на котором висит крупный долг отца. Матери он врет, что работает на Уолл-Стрит, сам же, надев строгий костюм и начистив ботинки, спускается в подземку и целый день обчищает карманы людей. Все окончательно переворачивается с ног на голову, когда девушка, с которой Бобби однажды переспал, заявляет ему, что беременна.
Качество видео: HDRip
Формат видео: MKV
Видео: XVID, 704x384, 16x9, 24.000 fps, 1 876 Kbps
Аудио: AC-3, 48.0 KHz, 448 Kbps, 6 channels (Front: L C R, Side: L R, LFE)


Unique ID : 193003991690713646296686508738849274786 (0x913337798ADFFA389825191356AFFBA2)
Complete name : E:\Vina\Косяки\Loosies.2012.HDRip.All.Films\Loosies 2012 HDRip [Renegade team].mkv
Format : Matroska
Format version : Version 2
File size : 1.45 GiB
Duration : 1h 27mn
Overall bit rate : 2 372 Kbps
Encoded date : UTC 2012-05-26 11:59:07
Writing application : mkvmerge v4.2.0 ('No Talking') сборка от Jul 28 2010 18:38:23
Writing library : libebml v1.0.0 + libmatroska v1.0.0
ID : 1
Format : MPEG-4 Visual
Format profile : Advanced Simple@L5
Format settings, BVOP : Yes
Format settings, QPel : No
Format settings, GMC : No warppoints
Format settings, Matrix : Custom
Codec ID : XVID
Codec ID/Hint : XviD
Duration : 1h 27mn
Bit rate : 1 876 Kbps
Width : 704 pixels
Height : 384 pixels
Display aspect ratio : 1.85:1
Frame rate : 24.000 fps
Color space : YUV
Chroma subsampling : 4:2:0
Bit depth : 8 bits
Scan type : Progressive
Compression mode : Lossy
Bits/(Pixel*Frame) : 0.289
Stream size : 1.14 GiB (79%)
Writing library : XviD 65
Default : Yes
Forced : No
ID : 2
Format : AC-3
Format/Info : Audio Coding 3
Mode extension : CM (complete main)
Format settings, Endianness : Big
Muxing mode : Header stripping
Codec ID : A_AC3
Duration : 1h 27mn
Bit rate mode : Constant
Bit rate : 448 Kbps
Channel(s) : 6 channels
Channel positions : Front: L C R, Side: L R, LFE
Sampling rate : 48.0 KHz
Bit depth : 16 bits
Compression mode : Lossy
Stream size : 280 MiB (19%)
Default : Yes
Forced : No



Display posts:    

Current time is: 20-Oct 22:39

All times are UTC + 3

You cannot post new topics in this forum
You cannot reply to topics in this forum
You cannot edit your posts in this forum
You cannot delete your posts in this forum
You cannot vote in polls in this forum
You cannot attach files in this forum
You cannot download files in this forum

The site does not give electronic versions of products, and is engaged only in a collecting and cataloguing of the references sent and published at a forum by our readers. If you are the legal owner of any submitted material and do not wish that the reference to it was in our catalogue, contact us and we shall immediately remove her. Files for an exchange on tracker are given by users of a site, and the administration does not bear the responsibility for their maintenance. The request to not fill in the files protected by copyrights, and also files of the illegal maintenance!