[ Сегодня идет свободное скачивание без начисления Download ]


Статистика раздачи
Нет
 
   
 
Top  
 
 
Судный день / The Day
Страна: США
Студия: Guy A. Danella Productions, Preferred Content, Faction M
Жанр: фантастика, триллер, драма
Год выпуска: 2011
Продолжительность: 01:30:00
Перевод: Профессиональный (многоголосый закадровый) [лицензия Blu-ray]
Оригинальная аудиодорожка: английская
Режиссер: Дуглас Арниокоски / Douglas Aarniokoski
В ролях: Шон Эшмор, Эшли Белл, Кори Хардрикт, Доминик Монахэн, Шаннин Соссамон, Майкл Эклунд, Брайана Барнс, Кэссиди Верро, София Эванюк, Роберт Болдуин
Описание: После вселенской катастрофы Земля превратилась в выжженную пустыню. По бескрайним дорогам, кишащим бандитами, враждующими между собой за еду, странствуют пятеро. Надеясь найти покой, они останавливаются в доме, который легко превращается в ловушку. Сможет ли кто-то выйти живым?

Качество видео: BDRip (AVC)
Исходник: Blu-ray 1080p
Контейнер: MKV
Видео: MPEG-4 AVC, 2569 kbps , 1024x576 (16:9), 24.000 fps, 0.181 bit/pixel
Аудио 1: русский (AC3, 6 ch, 48 kHz, 448 kbps)
Аудио 2: английский (AC3, 6 ch, 48 kHz, 448 kbps)
Cубтитры: русские
Формат субтитров: softsub (SRT)
Главы: есть

MediaInfo

General
Unique ID : 212208926090952362690277341890591685109 (0x9FA5F3D8836E26EA85BAEACCA7D579F5)
Complete name : D:\Sudnyj.denj.2011.x264.BDRip.(AVC).fanatus.mkv
Format : Matroska
Format version : Version 2
File size : 2.18 GiB
Duration : 1h 30mn
Overall bit rate : 3 467 Kbps
Movie name : The Day (2011) - fanatus
Encoded date : UTC 2012-10-24 12:17:11
Writing application : mkvmerge v3.4.0 ('Rapunzel') сборка от May 15 2010 09:38:20
Writing library : libebml v0.8.0 + libmatroska v0.9.0
Video
ID : 1
Format : AVC
Format/Info : Advanced Video Codec
Format profile : High@L4.1
Format settings, CABAC : Yes
Format settings, ReFrames : 10 frames
Codec ID : V_MPEG4/ISO/AVC
Duration : 1h 30mn
Bit rate : 2 569 Kbps
Width : 1 024 pixels
Height : 576 pixels
Display aspect ratio : 16:9
Frame rate : 24.000 fps
Color space : YUV
Chroma subsampling : 4:2:0
Bit depth : 8 bits
Scan type : Progressive
Bits/(Pixel*Frame) : 0.181
Stream size : 1.57 GiB (72%)
Title : The Day (2011)
Writing library : x264 core 128 r2216 198a7ea
Encoding settings : cabac=1 / ref=10 / deblock=1:-2:-2 / analyse=0x3:0x113 / me=umh / subme=11 / psy=1 / psy_rd=1.00:0.05 / mixed_ref=1 / me_range=48 / chroma_me=1 / trellis=2 / 8x8dct=1 / cqm=0 / deadzone=21,11 / fast_pskip=0 / chroma_qp_offset=-3 / threads=16 / lookahead_threads=2 / sliced_threads=0 / nr=0 / decimate=0 / interlaced=0 / bluray_compat=0 / constrained_intra=0 / bframes=10 / b_pyramid=2 / b_adapt=2 / b_bias=0 / direct=3 / weightb=1 / open_gop=0 / weightp=2 / keyint=240 / keyint_min=24 / scenecut=40 / intra_refresh=0 / rc_lookahead=240 / rc=2pass / mbtree=1 / bitrate=2569 / ratetol=1.0 / qcomp=0.60 / qpmin=10 / qpmax=69 / qpstep=3 / cplxblur=20.0 / qblur=0.5 / vbv_maxrate=50000 / vbv_bufsize=62500 / nal_hrd=none / ip_ratio=1.30 / aq=1:0.95 / zones=126595,129601,q=38
Language : English
Default : Yes
Forced : No
Matrix coefficients : BT.709-5, BT.1361, IEC 61966-2-4 709, SMPTE RP177
Audio #1
ID : 2
Format : AC-3
Format/Info : Audio Coding 3
Mode extension : CM (complete main)
Format settings, Endianness : Big
Codec ID : A_AC3
Duration : 1h 30mn
Bit rate mode : Constant
Bit rate : 448 Kbps
Channel(s) : 6 channels
Channel positions : Front: L C R, Side: L R, LFE
Sampling rate : 48.0 KHz
Bit depth : 16 bits
Compression mode : Lossy
Stream size : 288 MiB (13%)
Title : MVO
Language : Russian
Default : Yes
Forced : Yes
Audio #2
ID : 3
Format : AC-3
Format/Info : Audio Coding 3
Mode extension : CM (complete main)
Format settings, Endianness : Big
Codec ID : A_AC3
Duration : 1h 30mn
Bit rate mode : Constant
Bit rate : 448 Kbps
Channel(s) : 6 channels
Channel positions : Front: L C R, Side: L R, LFE
Sampling rate : 48.0 KHz
Bit depth : 16 bits
Compression mode : Lossy
Stream size : 288 MiB (13%)
Title : Dub
Language : English
Default : No
Forced : No
Text
ID : 4
Format : UTF-8
Codec ID : S_TEXT/UTF8
Codec ID/Info : UTF-8 Plain Text
Language : Russian
Default : No
Forced : No
Menu
00:00:00.000 : ru:
00:06:26.500 : ru:
00:11:35.958 : ru:
00:18:30.666 : ru:
00:25:32.333 : ru:
00:31:52.166 : ru:
00:40:28.000 : ru:
00:54:47.750 : ru:
00:58:57.083 : ru:
01:04:46.541 : ru:
01:11:27.916 : ru:
01:20:19.375 : ru:

x264 [info]

---[NoImage] raw [info]: 1024x576p 1:1 @ 24/1 fps (cfr)
---[NoImage] x264 [info]: using SAR=1/1
---[NoImage] x264 [info]: using cpu capabilities: MMX2 SSE2Fast FastShuffle SSEMisalign LZCNT
---[NoImage] x264 [info]: profile High, level 4.1
---[NoImage]
---[NoImage] x264 [info]: frame I:40 Avg QP:17.73 size: 70021
---[NoImage] x264 [info]: frame P:529 Avg QP:21.02 size: 25710
---[NoImage] x264 [info]: frame B:1933 Avg QP:23.73 size: 8775
---[NoImage] x264 [info]: consecutive B-frames: 3.4% 2.7% 8.2% 13.9% 14.2% 42.2% 7.8% 1.0% 2.9% 2.0% 1.8%
---[NoImage] x264 [info]: mb I I16..4: 20.3% 61.4% 18.3%
---[NoImage] x264 [info]: mb P I16..4: 7.8% 12.9% 1.5% P16..4: 29.6% 27.8% 7.6% 0.0% 0.0% skip:12.8%
---[NoImage] x264 [info]: mb B I16..4: 0.8% 1.6% 0.1% B16..8: 34.2% 13.0% 2.0% direct: 4.3% skip:43.9% L0:44.6% L1:48.6% BI: 6.8%
---[NoImage] x264 [info]: 8x8 transform intra:60.2% inter:60.9%
---[NoImage] x264 [info]: direct mvs spatial:95.8% temporal:4.2%
---[NoImage] x264 [info]: coded y,uvDC,uvAC intra: 58.2% 51.3% 26.6% inter: 21.4% 11.2% 2.3%
---[NoImage] x264 [info]: i16 v,h,dc,p: 73% 6% 11% 10%
---[NoImage] x264 [info]: i8 v,h,dc,ddl,ddr,vr,hd,vl,hu: 8% 6% 15% 10% 13% 12% 13% 10% 13%
---[NoImage] x264 [info]: i4 v,h,dc,ddl,ddr,vr,hd,vl,hu: 12% 7% 14% 8% 13% 12% 12% 10% 13%
---[NoImage] x264 [info]: i8c dc,h,v,p: 40% 34% 17% 9%
---[NoImage] x264 [info]: Weighted P-Frames: Y:7.2% UV:2.6%
---[NoImage] x264 [info]: ref P L0: 50.4% 9.8% 20.1% 5.9% 4.8% 2.8% 2.7% 1.2% 1.2% 0.9% 0.3% 0.0%
---[NoImage] x264 [info]: ref B L0: 77.5% 11.9% 4.7% 2.2% 1.3% 1.1% 0.8% 0.3% 0.1%
---[NoImage] x264 [info]: ref B L1: 93.4% 6.6%
---[NoImage] x264 [info]: kb/s:2560.28
---[NoImage] encoded 2502 frames, 12.40 fps, 2560.34 kb/s

[Цитировать]



Показать сообщения:    

Текущее время: 09-Дек 10:46

Часовой пояс: UTC + 3


Вы не можете начинать темы
Вы не можете отвечать на сообщения
Вы не можете редактировать свои сообщения
Вы не можете удалять свои сообщения
Вы не можете голосовать в опросах
Вы не можете прикреплять файлы к сообщениям
Вы не можете скачивать файлы

!ВНИМАНИЕ!
Сайт не предоставляет электронные версии произведений, а занимается лишь коллекционированием и каталогизацией ссылок, присылаемых и публикуемых на форуме нашими читателями. Если вы являетесь правообладателем какого-либо представленного материала и не желаете, чтобы ссылка на него находилась в нашем каталоге, свяжитесь с нами, и мы незамедлительно удалим ее. Файлы для обмена на трекере предоставлены пользователями сайта, и администрация не несет ответственности за их содержание. Просьба не заливать файлы, защищенные авторскими правами, а также файлы нелегального содержания!