[ Сегодня идет свободное скачивание без начисления Download ]


Статистика раздачи
Нет
 
   
 
Top  
 
 
Шакал / The Jackal
Слоган: «Он не оставляет свидетелей»-
Страна: США, Великобритания, Франция, Германия, Япония
Выпущено: Universal Pictures
Жанр: Боевик, Триллер
Год выпуска: 1997
Продолжительность: 2:04:29
Перевод: профессиональный (многоголосый, закадровый), авторский (одногоголосый, закадровый)
Cубтитры: русские, английские SDH, итальянские, испанские - кастильские, португальские - бразильские, испанские, датские, голландские, финские, греческие, норвежские, польские, португальские, шведские, турецкие-Режиссер: Майкл Кэйтон-Джонс / Michael Caton-Jones
В ролях: Брюс Уиллис /Bruce Willis/, Ричард Гир /Richard Gere/, Матильда Мэй /Mathilda May/, Джон Каннингэм /John Cunningham/, Стивен Спинелла /Stephen Spinella/, Сидни Пуатье /Sidney Poitier/--Описание:
В Москве вице-директор ФБР с помощью майора милиции Валентины Козловой производят задержание крупного российского мафиози. Тот оказывает сопротивление и умирает от пули. Глава мафии и брат покойного по имени Терек вызывает наемного убийцу по кличке Шакал, лучшего в мире профессионального киллера, которого никто из представителей закона не знает в лицо. Безжалостный киллер, относящийся к своей работе как к искусству, должен ликвидировать директора ФБР за 70 млн. долларов. Для его поимки и обезвреживания из тюрьмы освобождают единственного человека, способного его опознать, - террориста Деклана Малкуина, бывшего члена ИРА. На сей раз он соглашается поработать в интересах США и России в обмен на позволение увидеться с бывшей возлюбленной и освобождение из заключения. Начинается напряженнейшая игра в кошки-мышки...- -Качество: Blu-ray Remux (The Jackal 1997 1080p Bluray VC1 DTSHD MA 5.1-iELLE)
Формат: MKV
Видео кодек: VC-1
Аудио кодек: AC3, DTS, DTS-HD MA
Видео: VC-1; Advanced Profile 3; 1920x1080 (2.35:1); 30958 kbps; 23.976 fps
Аудио#1: Русский ; AC3; CBR 448 kbps; 6 ch; 48 kHz - (MVO)
Аудио#2: Русский ; AC3; CBR 384 kbps; 6 ch; 48 kHz - (MVO; R5 "Лизард")
Аудио#3: Русский ; DTS-HD MA; ~3716 kbps; 6 ch; 48 kHz; 24-bit (DTS Core: 5.1 / 48 kHz / 1509 kbps / 24-bit) - (AVO; Ю. Живов)
Аудио#4: Русский ; DTS; CBR 755 kbps; 6 ch; 48 kHz - (AVO; В. Горчаков)
Аудио#5: Русский ; AC3; CBR 384 kbps; 6 ch; 48 kHz - (AVO; А. Гаврилов)
Аудио#6: Русский ; AC3; CBR 192 kbps; 2 ch; 48 kHz - (AVO; А. Кашкин - VHS)
Аудио#7: Английский; DTS-HD MA; 4359 kbps; 6 ch; 48 kHz (DTS Core: 5.1 / 48 kHz / 1509 kbps / 24-bit)
Формат субтитров: softsub (SRT)
Навигация по главам: есть

MediaInfo

Format : Matroska
File size : 35.8 GiB
Duration : 2h 5mn
Overall bit rate : 41.0 Mbps
Encoded date : UTC 2010-09-21 11:14:07
Writing application : mkvmerge v4.0.0 ('The Stars were mine') built on Jun 6 2010 16:18:42
Writing library : libebml v1.0.0 + libmatroska v1.0.0
Video
ID : 1
Format : VC-1
Format profile : AP@L3
Codec ID : WVC1
Codec ID/Hint : Microsoft
Duration : 2h 5mn
Width : 1 920 pixels
Height : 1 080 pixels
Display aspect ratio : 16:9
Frame rate : 23.976 fps
Chroma subsampling : 4:2:0
Bit depth : 8 bits
Scan type : Progressive
Title : Шакал / The Jackal - by Juicy_J - VC-1; Advanced Profile 3; 1920x1080 (2.35:1); 30958 kbps; 23.976 fps
Audio #1
ID : 2
Format : AC-3
Format/Info : Audio Coding 3
Mode extension : CM (complete main)
Codec ID : A_AC3
Duration : 2h 5mn
Bit rate mode : Constant
Bit rate : 448 Kbps
Channel(s) : 6 channels
Channel positions : Front: L C R, Side: L R, LFE
Sampling rate : 48.0 KHz
Bit depth : 16 bits
Stream size : 401 MiB (1%)
Title : Русский (MVO); AC3; CBR 448 kbps; 6 ch; 48 kHz
Language : Russian
Audio #2
ID : 3
Format : AC-3
Format/Info : Audio Coding 3
Mode extension : CM (complete main)
Codec ID : A_AC3
Duration : 2h 5mn
Bit rate mode : Constant
Bit rate : 384 Kbps
Channel(s) : 6 channels
Channel positions : Front: L C R, Side: L R, LFE
Sampling rate : 48.0 KHz
Bit depth : 16 bits
Stream size : 344 MiB (1%)
Title : Русский (MVO; R5 "Лизард"); AC3; CBR 384 kbps; 6 ch; 48 kHz
Language : Russian
Audio #3
ID : 4
Format : DTS
Format/Info : Digital Theater Systems
Format profile : MA
Codec ID : A_DTS
Duration : 2h 5mn
Bit rate mode : Variable
Channel(s) : 6 channels
Channel positions : Front: L C R, Side: L R, LFE
Sampling rate : 48.0 KHz
Bit depth : 24 bits
Title : Русский (AVO; Ю. Живов); DTS-HD MA; ~3716 kbps; 6 ch; 48 kHz; 24-bit (DTS Core: 5.1 / 48 kHz / 1509 kbps / 24-bit)
Language : Russian
Audio #4
ID : 5
Format : DTS
Format/Info : Digital Theater Systems
Codec ID : A_DTS
Duration : 2h 5mn
Bit rate mode : Constant
Bit rate : 755 Kbps
Channel(s) : 6 channels
Channel positions : Front: L C R, Side: L R, LFE
Sampling rate : 48.0 KHz
Bit depth : 24 bits
Stream size : 676 MiB (2%)
Title : Русский (AVO; В. Горчаков); DTS; CBR 755 kbps; 6 ch; 48 kHz
Language : Russian
Audio #5
ID : 6
Format : AC-3
Format/Info : Audio Coding 3
Mode extension : CM (complete main)
Codec ID : A_AC3
Duration : 2h 5mn
Bit rate mode : Constant
Bit rate : 384 Kbps
Channel(s) : 6 channels
Channel positions : Front: L C R, Side: L R, LFE
Sampling rate : 48.0 KHz
Bit depth : 16 bits
Stream size : 344 MiB (1%)
Title : Русский (AVO; А. Гаврилов); AC3; CBR 384 kbps; 6 ch; 48 kHz
Language : Russian
Audio #6
ID : 7
Format : AC-3
Format/Info : Audio Coding 3
Mode extension : CM (complete main)
Codec ID : A_AC3
Duration : 2h 5mn
Bit rate mode : Constant
Bit rate : 192 Kbps
Channel(s) : 2 channels
Channel positions : Front: L R
Sampling rate : 48.0 KHz
Bit depth : 16 bits
Stream size : 172 MiB (0%)
Title : Русский (AVO; А. Кашкин - VHS); AC3; CBR 192 kbps; 2 ch; 48 kHz
Language : Russian
Audio #7
ID : 8
Format : DTS
Format/Info : Digital Theater Systems
Format profile : MA
Codec ID : A_DTS
Duration : 2h 5mn
Bit rate mode : Variable
Channel(s) : 6 channels
Channel positions : Front: L C R, Side: L R, LFE
Sampling rate : 48.0 KHz
Bit depth : 24 bits
Title : Английский; DTS-HD MA; 4359 kbps; 6 ch; 48 kHz (DTS Core: 5.1 / 48 kHz / 1509 kbps / 24-bit)
Text #1
ID : 9
Format : UTF-8
Codec ID : S_TEXT/UTF8
Codec ID/Info : UTF-8 Plain Text
Title : Русские
Language : Russian
Text #2
ID : 10
Format : UTF-8
Codec ID : S_TEXT/UTF8
Codec ID/Info : UTF-8 Plain Text
Title : Английские SDH
Text #3
ID : 11
Format : UTF-8
Codec ID : S_TEXT/UTF8
Codec ID/Info : UTF-8 Plain Text
Title : Итальянские
Language : Italian
Text #4
ID : 12
Format : UTF-8
Codec ID : S_TEXT/UTF8
Codec ID/Info : UTF-8 Plain Text
Title : Испанские - Кастильские
Language : Spanish
Text #5
ID : 13
Format : UTF-8
Codec ID : S_TEXT/UTF8
Codec ID/Info : UTF-8 Plain Text
Title : Португальские - Бразильские
Language : Portuguese
Text #6
ID : 14
Format : UTF-8
Codec ID : S_TEXT/UTF8
Codec ID/Info : UTF-8 Plain Text
Title : Испанские
Language : Spanish
Text #7
ID : 15
Format : UTF-8
Codec ID : S_TEXT/UTF8
Codec ID/Info : UTF-8 Plain Text
Title : Датские
Language : Danish
Text #8
ID : 16
Format : UTF-8
Codec ID : S_TEXT/UTF8
Codec ID/Info : UTF-8 Plain Text
Title : Голландские
Language : Dutch
Text #9
ID : 17
Format : UTF-8
Codec ID : S_TEXT/UTF8
Codec ID/Info : UTF-8 Plain Text
Title : Финские
Language : Finnish
Text #10
ID : 18
Format : UTF-8
Codec ID : S_TEXT/UTF8
Codec ID/Info : UTF-8 Plain Text
Title : Греческие
Language : Greek
Text #11
ID : 19
Format : UTF-8
Codec ID : S_TEXT/UTF8
Codec ID/Info : UTF-8 Plain Text
Title : Норвежские
Language : Norwegian
Text #12
ID : 20
Format : UTF-8
Codec ID : S_TEXT/UTF8
Codec ID/Info : UTF-8 Plain Text
Title : Польские
Language : Polish
Text #13
ID : 21
Format : UTF-8
Codec ID : S_TEXT/UTF8
Codec ID/Info : UTF-8 Plain Text
Title : Португальские
Language : Portuguese
Text #14
ID : 22
Format : UTF-8
Codec ID : S_TEXT/UTF8
Codec ID/Info : UTF-8 Plain Text
Title : Шведские
Language : Swedish
Text #15
ID : 23
Format : UTF-8
Codec ID : S_TEXT/UTF8
Codec ID/Info : UTF-8 Plain Text
Title : Турецкие
Language : Turkish
Menu
00:00:00.000 : en:Main Titles
00:03:41.012 : en:Blood is the Witness
00:08:08.946 : en:Debts to Pay
00:10:05.646 : en:The Assassin
00:12:21.866 : en:Terek's Men
00:14:39.503 : en:The Assassin Prepares
00:18:21.183 : en:Who is the Jackal?
00:20:23.013 : en:Montreal
00:22:25.135 : en:The Terrorist's Deal
00:32:07.550 : en:Isabella
00:38:58.961 : en:Just One Guy
00:41:24.773 : en:A Little Faith
00:45:13.168 : en:The Compromised Shipment
00:51:46.561 : en:Good Guys Don't Hide
00:53:28.496 : en:The Bonus
00:55:11.766 : en:The Test
00:57:00.542 : en:The Real Test
01:03:39.774 : en:Deja Vu
01:07:16.532 : en:The Regatta
01:15:56.843 : en:The Inside Man
01:18:35.836 : en:Witherspoon's Mistake
01:24:46.289 : en:Black Blood
01:30:38.266 : en:The House Guest
01:34:02.762 : en:The Real Target
01:38:15.848 : en:To Find a Killer
01:43:00.424 : en:The Jackal Strikes
01:45:03.463 : en:The Subway
01:50:19.195 : en:Declan's Decision
01:52:51.055 : en:Judgment Day
01:53:31.679 : en:Dead and Gone
01:56:22.433 : en:End Titles

Знаете ли вы, что...

До того, как в проект пришел Брюс Уиллис, роль Шакала предлагалась Ричарду Гиру, однако актеру была больше по душе роль протагониста, которую он и заполучил.
От участия в проекте отказались Шон Коннери, Лайам Нисон и Мэттью МакКонэхи.
Брюс Уиллис попросил переснять сцену, в ходе которой Шакал убивает гомосексуалиста. И действительно, гораздо логичнее, что жертва погибает по причине владения лишней информацией, нежели из-за ненависти киллера к представителям сексуальных меньшинств.
По окончании работы над фильмом, Брюс Уиллис и Ричард Гир поклялись друг другу никогда больше не сниматься вместе.

Скриншоты


[Цитировать]



Показать сообщения:    

Текущее время: 26-Фев 04:35

Часовой пояс: UTC + 3


Вы не можете начинать темы
Вы не можете отвечать на сообщения
Вы не можете редактировать свои сообщения
Вы не можете удалять свои сообщения
Вы не можете голосовать в опросах
Вы не можете прикреплять файлы к сообщениям
Вы не можете скачивать файлы

!ВНИМАНИЕ!
Сайт не предоставляет электронные версии произведений, а занимается лишь коллекционированием и каталогизацией ссылок, присылаемых и публикуемых на форуме нашими читателями. Если вы являетесь правообладателем какого-либо представленного материала и не желаете, чтобы ссылка на него находилась в нашем каталоге, свяжитесь с нами, и мы незамедлительно удалим ее. Файлы для обмена на трекере предоставлены пользователями сайта, и администрация не несет ответственности за их содержание. Просьба не заливать файлы, защищенные авторскими правами, а также файлы нелегального содержания!