[ Сегодня идет свободное скачивание без начисления Download ]


Статистика раздачи
Нет
 
   
 
Top  
 
 
Холодное небо / Der kalte Himmel
Страна: Германия
Жанр: драма
Год выпуска: 2011
Продолжительность: 01:28:59 + 01:28:38
Перевод: Одноголосый закадровый - Юрий Муравский
Cубтитры: нет
Оригинальная аудиодорожка: немецкий
Режиссер: Йоханнес Фабрик / Johannes Fabrick
В ролях: Кристина Нойбауэр / Christine Neubauer, Эрик Хэрман / Eric Hermann, Марк Хэрман / Marc Hermann, Тим Бергманн / Tim Bergmann, Маркус Миттермейер / Marcus Mittermeier, Наташа Паулик / Natascha Paulick, Моника Баумгартнер / Monika Baumgartner, Джоэль Роуз Клебер / Joelle Rose Kleber, Вольфган Хюбш / Wolfgang H?bsch
Описание: Простая семья. Только амбициозные планы главы семейства и странное поведение маленького сына Феликса отличают ее от множества таких же фермерских семей. Подходит время идти Феликсу в школу, и с этого начинаются все мучения матери, которая уверена, что ее сын не дурак, что ему не надо учиться в специальной школе, как определяет директор школы. Мальчику только необходима помощь. Он живет в каком-то своем мире, но имеет отличную память и склонность к математическим вычислениям. Вот только, что придет ему в голову в определенный момент и что он начнет делать, этого никто не может предвидеть.
Маленький Феликс подвергается разным методам лечения, которые только могут придумать живущие в городке обыватели. Одно из самых тяжелых, это сеанс экзорцизма, из которого его полуживого выносит мать. Все ли потеряно, как предсказывают светила психиатрии и психологии? Главное, что в это не верит мама мальчика...
Перевод: Юрий Муравский
Сэмпл
Качество видео: TVRip
Формат видео: AVI
Видео: XviD MPEG-4 Visual, 640х352 (16:9), 25.000 fps, ~949 kbps
Аудио: MP3, 48000 Hz, 2 ch, 192 kbps (русский)
Аудио 2: MP3, 48000 Hz, 2 ch, 145 kbps (немецкий)

MediaInfo

General
Complete name : C:\Users\1\Desktop\Автор\Der kalte Himmel\Der.kalte.Himmel1.avi
Format : AVI
Format/Info : Audio Video Interleave
File size : 823 MiB
Duration : 1h 28mn
Overall bit rate mode : Variable
Overall bit rate : 1 293 Kbps
Writing application : VirtualDubMod 1.5.10.2 (build 2540/release)
Writing library : VirtualDubMod build 2540/release
Video
ID : 0
Format : MPEG-4 Visual
Format profile : Advanced Simple@L5
Format settings, BVOP : 1
Format settings, QPel : No
Format settings, GMC : No warppoints
Format settings, Matrix : Default (H.263)
Codec ID : XVID
Codec ID/Hint : XviD
Duration : 1h 28mn
Bit rate : 947 Kbps
Width : 640 pixels
Height : 352 pixels
Display aspect ratio : 16:9
Frame rate : 25.000 fps
Color space : YUV
Chroma subsampling : 4:2:0
Bit depth : 8 bits
Scan type : Progressive
Compression mode : Lossy
Bits/(Pixel*Frame) : 0.168
Stream size : 603 MiB (73%)
Writing library : XviD 1.2.1 (UTC 2008-12-04)
Audio #1
ID : 1
Format : MPEG Audio
Format version : Version 1
Format profile : Layer 3
Mode : Joint stereo
Codec ID : 55
Codec ID/Hint : MP3
Duration : 1h 28mn
Bit rate mode : Constant
Bit rate : 192 Kbps
Channel(s) : 2 channels
Sampling rate : 48.0 KHz
Compression mode : Lossy
Stream size : 122 MiB (15%)
Alignment : Aligned on interleaves
Interleave, duration : 40 ms (1.00 video frame)
Interleave, preload duration : 504 ms
Audio #2
ID : 2
Format : MPEG Audio
Format version : Version 1
Format profile : Layer 3
Mode : Joint stereo
Codec ID : 55
Codec ID/Hint : MP3
Duration : 1h 28mn
Bit rate mode : Variable
Bit rate : 145 Kbps
Channel(s) : 2 channels
Sampling rate : 48.0 KHz
Compression mode : Lossy
Stream size : 88.6 MiB (11%)
Alignment : Split accross interleaves
Interleave, duration : 40 ms (1.00 video frame)
Interleave, preload duration : 500 ms
Writing library : LAME3.98r
Encoding settings : -m j -V 4 -q 3 -lowpass 17.5 --abr 145
General
Complete name : C:\Users\1\Desktop\Автор\Der kalte Himmel\Der.kalte.Himmel2.avi
Format : AVI
Format/Info : Audio Video Interleave
File size : 822 MiB
Duration : 1h 28mn
Overall bit rate mode : Variable
Overall bit rate : 1 297 Kbps
Writing application : VirtualDubMod 1.5.10.2 (build 2540/release)
Writing library : VirtualDubMod build 2540/release
Video
ID : 0
Format : MPEG-4 Visual
Format profile : Advanced Simple@L5
Format settings, BVOP : 1
Format settings, QPel : No
Format settings, GMC : No warppoints
Format settings, Matrix : Default (H.263)
Codec ID : XVID
Codec ID/Hint : XviD
Duration : 1h 28mn
Bit rate : 951 Kbps
Width : 640 pixels
Height : 352 pixels
Display aspect ratio : 16:9
Frame rate : 25.000 fps
Color space : YUV
Chroma subsampling : 4:2:0
Bit depth : 8 bits
Scan type : Progressive
Compression mode : Lossy
Bits/(Pixel*Frame) : 0.169
Stream size : 603 MiB (73%)
Writing library : XviD 1.2.1 (UTC 2008-12-04)
Audio #1
ID : 1
Format : MPEG Audio
Format version : Version 1
Format profile : Layer 3
Mode : Joint stereo
Codec ID : 55
Codec ID/Hint : MP3
Duration : 1h 28mn
Bit rate mode : Constant
Bit rate : 192 Kbps
Channel(s) : 2 channels
Sampling rate : 48.0 KHz
Compression mode : Lossy
Stream size : 122 MiB (15%)
Alignment : Aligned on interleaves
Interleave, duration : 40 ms (1.00 video frame)
Interleave, preload duration : 504 ms
Audio #2
ID : 2
Format : MPEG Audio
Format version : Version 1
Format profile : Layer 3
Mode : Joint stereo
Codec ID : 55
Codec ID/Hint : MP3
Duration : 1h 28mn
Bit rate mode : Variable
Bit rate : 145 Kbps
Channel(s) : 2 channels
Sampling rate : 48.0 KHz
Compression mode : Lossy
Stream size : 88.5 MiB (11%)
Alignment : Split accross interleaves
Interleave, duration : 40 ms (1.00 video frame)
Interleave, preload duration : 500 ms
Writing library : LAME3.98r
Encoding settings : -m j -V 4 -q 3 -lowpass 17.5 --abr 145

Скриншоты


[Цитировать]



Показать сообщения:    

Текущее время: 10-Дек 21:31

Часовой пояс: UTC + 3


Вы не можете начинать темы
Вы не можете отвечать на сообщения
Вы не можете редактировать свои сообщения
Вы не можете удалять свои сообщения
Вы не можете голосовать в опросах
Вы не можете прикреплять файлы к сообщениям
Вы не можете скачивать файлы

!ВНИМАНИЕ!
Сайт не предоставляет электронные версии произведений, а занимается лишь коллекционированием и каталогизацией ссылок, присылаемых и публикуемых на форуме нашими читателями. Если вы являетесь правообладателем какого-либо представленного материала и не желаете, чтобы ссылка на него находилась в нашем каталоге, свяжитесь с нами, и мы незамедлительно удалим ее. Файлы для обмена на трекере предоставлены пользователями сайта, и администрация не несет ответственности за их содержание. Просьба не заливать файлы, защищенные авторскими правами, а также файлы нелегального содержания!