[ Today is free to download without increasing Download ]

DL-List and Torrent activity
Леди / The Lady
Страна: Франция, Великобритания
Жанр: драма, биография
Год выпуска: 2011
Продолжительность: 02:12:11
Перевод: Профессиональный (многоголосый закадровый)
Cубтитры: нет
Режиссер: Люк Бессон / Luc Besson
В ролях: Мишель Йео, Дэвид Тьюлис, Джонатан Раджетт, Джонатан Вудхауз, Сьюзен Вулдридж, Бенедикт Вонг, Флинт Бангкок, Гай Барвелл, Сахайак Бунсанакит, Энтони Хиклинг и др.
Описание: История любви Аун Сан Су Чжи и ее мужа Майкла Эйриса. Ни расстояния, ни долгие разлуки, ни враждебный политический режим не смогли разрушить их любовь. В то же время, это эпическая история о женщине, благодаря которой в Бирме (современной Мьянме) появилась демократия. Это история любви и человеческого взаимопонимания на фоне политических пертурбаций…

Качество видео: HDRip (Исходник BDRip 720p)
Формат видео: AVI
Видео: 720x304 (2.37:1), 24 fps, XviD build 50 ~1280 kbps avg, 0.24 bit/pixel
Аудио: 48 kHz, AC3 Dolby Digital, 2/0 (L,R) ch, ~192 kbps


Complete name : D:КиноLedi.2011.P.HDRip.1400MB_.avi
Format : AVI
Format/Info : Audio Video Interleave
File size : 1.37 GiB
Duration : 2h 12mn
Overall bit rate : 1 481 Kbps
Writing application : VirtualDubMod (build 2540/release)
Writing library : VirtualDubMod build 2540/release
ID : 0
Format : MPEG-4 Visual
Format profile : Advanced Simple@L5
Format settings, BVOP : 2
Format settings, QPel : No
Format settings, GMC : No warppoints
Format settings, Matrix : Custom
Codec ID : XVID
Codec ID/Hint : XviD
Duration : 2h 12mn
Bit rate : 1 280 Kbps
Width : 720 pixels
Height : 304 pixels
Display aspect ratio : 2.35:1
Frame rate : 24.000 fps
Color space : YUV
Chroma subsampling : 4:2:0
Bit depth : 8 bits
Scan type : Progressive
Compression mode : Lossy
Bits/(Pixel*Frame) : 0.244
Stream size : 1.18 GiB (86%)
Writing library : XviD 1.2.1 (UTC 2008-12-04)
ID : 1
Format : AC-3
Format/Info : Audio Coding 3
Mode extension : CM (complete main)
Format settings, Endianness : Big
Codec ID : 2000
Duration : 2h 12mn
Bit rate mode : Constant
Bit rate : 192 Kbps
Channel(s) : 2 channels
Channel positions : Front: L R
Sampling rate : 48.0 KHz
Bit depth : 16 bits
Compression mode : Lossy
Stream size : 182 MiB (13%)
Alignment : Split accross interleaves
Interleave, duration : 42 ms (1.00 video frame)
Interleave, preload duration : 500 ms



Display posts:    

Current time is: 25-Oct 13:20

All times are UTC + 3

You cannot post new topics in this forum
You cannot reply to topics in this forum
You cannot edit your posts in this forum
You cannot delete your posts in this forum
You cannot vote in polls in this forum
You cannot attach files in this forum
You cannot download files in this forum

The site does not give electronic versions of products, and is engaged only in a collecting and cataloguing of the references sent and published at a forum by our readers. If you are the legal owner of any submitted material and do not wish that the reference to it was in our catalogue, contact us and we shall immediately remove her. Files for an exchange on tracker are given by users of a site, and the administration does not bear the responsibility for their maintenance. The request to not fill in the files protected by copyrights, and also files of the illegal maintenance!