[ Сегодня идет свободное скачивание без начисления Download ]


Статистика раздачи
Нет
 
   
 
Top  
 
 
Плоть + кровь / Flesh+Blood
«A timeless adventure, a passion for wealth and power. Only the strongest will survive»
-
Страна: США, Нидерланды, Испания
Студия: Riverside Pictures, MGM Home Entertainment, Orion Pictures Corporation
Жанр: Боевик, Драма, Приключения
Год выпуска: 1985
Продолжительность: 02:02:34
Перевод: Профессиональный (многоголосый закадровый) (Н-Кино), Профессиональный (многоголосый закадровый), Авторский (одноголосый закадровый) Андрей Гаврилов
Cубтитры: русские, английские
Оригинальная аудиодорожка: английский-Режиссер: Пол Верховен / Paul Verhoeven
В ролях: Рутгер Хауэр / Rutger Hauer, Дженнифер Джейсон Ли / Jennifer Jason Leigh, Том Бёрлинсон / Tom Burlinson, Джек Томпсон / Jack Thompson, Фернандо Ильбек / Fernando Hilbeck, Сьюзен Тиррел / Susan Tyrrell, Рональд Лейси / Ronald Lacey, Брайон Джеймс / Brion James, Джон Деннис Джонстон / John Dennis Johnston, Симон Андреу / Simon Andreu
Описание: 1501 год. Вся Европа охвачена кровопролитными войнами. В городах свирепствует чума. Отряд солдат удачи, руководимый бывшим наемником Мартином, захватывает в заложники невесту сына барона Арнольфини, когда-то предавшего Мартина.
Отряд укрывается в заброшенном после эпидемии чумы замке и вступает в неравную битву с армией барона.
- -Качество: HDTVRip 720p
Контейнер: MKV
Видео: MPEG4 AVC (H264), 1280x546, 25.000 fps, 7270 Kbps
Аудио 1: AC3, 6 ch, 48000Hz, 384 Kbps | Многоголосый (Н-Кино)
Аудио 2: AC3, 2 ch, 48000Hz, 192 Kbps | Многоголосый
Аудио 3: AC3, 2 ch, 48000Hz, 192 Kbps | Одноголосый (А. Гаврилов)
Аудио 4: AC3, 2 ch, 48000Hz, 384 Kbps | Оригинал
Формат субтитров: softsub (SRT)

MediaInfo

Формат : Matroska
Версия формата : Version 1
Размер файла : 7,28 Гбайт
Продолжительность : 2 ч. 2 м.
Общий поток : 8501 Кбит/сек
Дата кодирования : UTC 2011-10-26 03:27:51
Программа кодирования : mkvmerge v2.2.0 ('Turn It On Again') built on Mar 4 2008 12:58:26
Библиотека кодирования : libebml v0.7.7 + libmatroska v0.8.1
Видео
Идентификатор : 1
Формат : AVC
Формат/Информация : Advanced Video Codec
Профиль формата : High@L4.1
Параметр CABAC формата : Да
Параметр ReFrames формата : 11 кадров
Идентификатор кодека : V_MPEG4/ISO/AVC
Продолжительность : 2 ч. 2 м.
Битрейт : 7270 Кбит/сек
Ширина : 1280 пикс.
Высота : 546 пикс.
Соотношение сторон : 2,35:1
Частота кадров : 25,000 кадр/сек
Цветовое пространство : YUV
Подвыборка цветности : 4:2:0
Битовая глубина : 8 бит
Тип развёртки : Прогрессивная
Бит/(Пиксели*Кадры) : 0.416
Размер потока : 6,15 Гбайт (84%)
Заголовок : Flesh+Blood (1985) HDTV 720p
Библиотека кодирования : x264 core 116 r2019 9cc407d
Настройки программы : cabac=1 / ref=11 / deblock=1:-2:-2 / analyse=0x3:0x133 / me=umh / subme=10 / psy=1 / psy_rd=0.80:0.15 / mixed_ref=1 / me_range=64 / chroma_me=1 / trellis=2 / 8x8dct=1 / cqm=0 / deadzone=21,11 / fast_pskip=0 / chroma_qp_offset=-3 / threads=12 / sliced_threads=0 / nr=0 / decimate=0 / interlaced=0 / bluray_compat=0 / constrained_intra=0 / bframes=10 / b_pyramid=2 / b_adapt=2 / b_bias=0 / direct=3 / weightb=1 / open_gop=0 / weightp=2 / keyint=250 / keyint_min=25 / scenecut=40 / intra_refresh=0 / rc_lookahead=40 / rc=2pass / mbtree=1 / bitrate=7270 / ratetol=1.0 / qcomp=0.60 / qpmin=0 / qpmax=69 / qpstep=4 / cplxblur=20.0 / qblur=0.5 / vbv_maxrate=50000 / vbv_bufsize=62500 / nal_hrd=none / ip_ratio=1.40 / aq=1:0.60
Язык : English
Основные цвета : BT.709-5, BT.1361, IEC 61966-2-4, SMPTE RP177
Характеристики трансфера : BT.709-5, BT.1361
Коэффициенты матрицы : BT.709-5, BT.1361, IEC 61966-2-4 709, SMPTE RP177
Аудио #1
Идентификатор : 2
Формат : AC-3
Формат/Информация : Audio Coding 3
Расширение режима : CM (complete main)
Идентификатор кодека : A_AC3
Продолжительность : 2 ч. 2 м.
Вид битрейта : Постоянный
Битрейт : 384 Кбит/сек
Каналы : 6 каналов
Расположение каналов : Front: L C R, Side: L R, LFE
Частота : 48,0 КГц
Битовая глубина : 16 бит
Метод сжатия : С потерями
Размер потока : 337 Мбайт (5%)
Заголовок : Многоголосый (Н-Кино) AC3 5.1 384 kbps
Язык : Russian
Аудио #2
Идентификатор : 3
Формат : AC-3
Формат/Информация : Audio Coding 3
Расширение режима : CM (complete main)
Идентификатор кодека : A_AC3
Продолжительность : 2 ч. 2 м.
Вид битрейта : Постоянный
Битрейт : 192 Кбит/сек
Каналы : 2 канала
Расположение каналов : Front: L R
Частота : 48,0 КГц
Битовая глубина : 16 бит
Метод сжатия : С потерями
Размер потока : 168 Мбайт (2%)
Заголовок : Многоголосый AC3 2.0 192 kbps
Язык : Russian
Аудио #3
Идентификатор : 4
Формат : AC-3
Формат/Информация : Audio Coding 3
Расширение режима : CM (complete main)
Идентификатор кодека : A_AC3
Продолжительность : 2 ч. 2 м.
Вид битрейта : Постоянный
Битрейт : 192 Кбит/сек
Каналы : 2 канала
Расположение каналов : Front: L R
Частота : 48,0 КГц
Битовая глубина : 16 бит
Метод сжатия : С потерями
Размер потока : 168 Мбайт (2%)
Заголовок : Андрей Гаврилов AC3 2.0 192 kbps
Язык : Russian
Аудио #4
Идентификатор : 5
Формат : AC-3
Формат/Информация : Audio Coding 3
Профиль формата : Dolby Digital
Расширение режима : CM (complete main)
Идентификатор кодека : A_AC3
Продолжительность : 2 ч. 2 м.
Вид битрейта : Постоянный
Битрейт : 384 Кбит/сек
Каналы : 2 канала
Расположение каналов : Front: L R
Частота : 48,0 КГц
Битовая глубина : 16 бит
Метод сжатия : С потерями
Размер потока : 337 Мбайт (5%)
Заголовок : Оригинал AC3 2.0 384 kbps
Язык : English
Текст #1
Идентификатор : 6
Формат : UTF-8
Идентификатор кодека : S_TEXT/UTF8
Идентификатор кодека/Информация : UTF-8 Plain Text
Язык : Russian
Текст #2
Идентификатор : 7
Формат : UTF-8
Идентификатор кодека : S_TEXT/UTF8
Идентификатор кодека/Информация : UTF-8 Plain Text
Язык : English

Скриншоты

/52ff4ea5492f5817ed7fd53f9807ffdb.png">

[Цитировать]



Показать сообщения:    

Текущее время: 29-Мар 11:25

Часовой пояс: UTC + 6


Вы не можете начинать темы
Вы не можете отвечать на сообщения
Вы не можете редактировать свои сообщения
Вы не можете удалять свои сообщения
Вы не можете голосовать в опросах
Вы не можете прикреплять файлы к сообщениям
Вы не можете скачивать файлы

!ВНИМАНИЕ!
Сайт не предоставляет электронные версии произведений, а занимается лишь коллекционированием и каталогизацией ссылок, присылаемых и публикуемых на форуме нашими читателями. Если вы являетесь правообладателем какого-либо представленного материала и не желаете, чтобы ссылка на него находилась в нашем каталоге, свяжитесь с нами, и мы незамедлительно удалим ее. Файлы для обмена на трекере предоставлены пользователями сайта, и администрация не несет ответственности за их содержание. Просьба не заливать файлы, защищенные авторскими правами, а также файлы нелегального содержания!