[ Сегодня идет свободное скачивание без начисления Download ]


Статистика раздачи
Нет
 
   
 
Top  
 
 
Человек с железными кулакамиThe Man with the Iron Fists«Seven clans, a fortune in gold. Let the battle begin.»- Страна: США, Гонконг
Жанр: боевик
Год выпуска: 2012
Продолжительность: 01:35:24-Перевод: Профессиональный (многоголосый, закадровый)
Оригинальнас аудиодорожка: английский
Субтитры: нет
Режиссер: РЗА / RZA
В ролях: RZA, Рассел Кроу, Люси Лью, Байрон Манн, Джейми Чунг, Рик Юн, Дэйв Батиста, Кунг Ле, Джин Онг, Джа Хуи Лью, Чен Куан Тай, Ка-Ян Леунг-Описание: События развернутся в древнем феодальном Китае. Фильм расскажет историю чернокожего кузнеца, который умеет делать оружие и с легкой руки снабжает им всех, у кого есть чем заплатить. Китай того времени - жестокое место, поэтому оружие и знание навыков кунг-фу помогут жителям близлежащей деревни защитить свои дома и семьи от других кланов...-

Доп. Информация

Бюджет: $15 000 000
Сборы в США: $15 634 090
Сборы в мире: $19 721 245
Мировая премьера: 2 ноября 2012
Релиз на DVD: 28 марта 2013, «Двадцатый Век Фокс СНГ»
Релиз на Blu-ray: 28 марта 2013, «Двадцатый Век Фокс СНГ»
-Качество: BDRip (Исходник BD Remux)
Контейнер: AVI
Видео: XviD, 720x304 (2.35:1), 1541 kbps, 23,976 fps, 0,294 bpp
Аудио №1: AC3 / 2.0 / 48 kHz / 192 kbps / 16 bit | MVO
Аудио №2: AC3 / 5.1 / 48 kHz / 448 kbps / 16 bit | Orig-

Знаете ли Вы, что...

  • Первая монтажная версия фильма длилась 4 часа. Режиссер RZA хотел разделить материал на два полнометражных фильма, но соавтор сценария и продюсер фильма Элай Рот не согласился с таким вариантом. И в результате кропотливой работы создателям удалось сократить продолжительность фильма до приемлемых 90 минут экранного времени.
  • Более двух лет заняла у RZA и Элая Рота работа над сценарием фильма, в котором они проработали все аспекты в сюжете и каждую деталь в используемом оружии.
  • «Крик Вильгельма» можно услышать, когда Тадеуш бросает мужчину с балкона.
  • Когда Рассел Кроу идет через комнату, он надевает очки, но, прежде чем он подходит к двери, очки падают. Однако, когда он открывает дверь мадам Блоссом, его очки снова на месте.

Media Info

General
Complete name : F:\The_Man_with_the_Iron_Fists_2012_BDRip.am64.avi
Format : AVI
Format/Info : Audio Video Interleave
File size : 1.46 GiB
Duration : 1h 35mn
Overall bit rate : 2 195 Kbps
Movie name : The_Man_with_the_Iron_Fists_2012_BDRip.am64
Director : Ам64
Writing application : VirtualDubModRus 1.5.10.2 (build 2542/release)
Original source form/Name : Movie
Video
ID : 0
Format : MPEG-4 Visual
Format profile : Advanced Simple@L5
Format settings, BVOP : 2
Format settings, QPel : No
Format settings, GMC : No warppoints
Format settings, Matrix : Default (MPEG)
Codec ID : XVID
Codec ID/Hint : XviD
Duration : 1h 35mn
Bit rate : 1 542 Kbps
Width : 720 pixels
Height : 304 pixels
Display aspect ratio : 2.35:1
Frame rate : 23.976 fps
Color space : YUV
Chroma subsampling : 4:2:0
Bit depth : 8 bits
Scan type : Progressive
Compression mode : Lossy
Bits/(Pixel*Frame) : 0.294
Stream size : 1.03 GiB (70%)
Writing library : XviD 65
Audio #1
ID : 1
Format : AC-3
Format/Info : Audio Coding 3
Mode extension : CM (complete main)
Codec ID : 2000
Duration : 1h 35mn
Bit rate mode : Constant
Bit rate : 192 Kbps
Channel(s) : 2 channels
Channel positions : Front: L R
Sampling rate : 48.0 KHz
Bit depth : 16 bits
Compression mode : Lossy
Stream size : 131 MiB (9%)
Alignment : Split accross interleaves
Interleave, duration : 42 ms (1.00 video frame)
Interleave, preload duration : 500 ms
Audio #2
ID : 2
Format : AC-3
Format/Info : Audio Coding 3
Mode extension : CM (complete main)
Codec ID : 2000
Duration : 1h 35mn
Bit rate mode : Constant
Bit rate : 448 Kbps
Channel(s) : 6 channels
Channel positions : Front: L C R, Side: L R, LFE
Sampling rate : 48.0 KHz
Bit depth : 16 bits
Compression mode : Lossy
Stream size : 305 MiB (20%)
Alignment : Split accross interleaves
Interleave, duration : 42 ms (1.00 video frame)
Interleave, preload duration : 500 ms

Скриншоты

[Цитировать]



Показать сообщения:    

Текущее время: 08-Дек 10:57

Часовой пояс: UTC + 3


Вы не можете начинать темы
Вы не можете отвечать на сообщения
Вы не можете редактировать свои сообщения
Вы не можете удалять свои сообщения
Вы не можете голосовать в опросах
Вы не можете прикреплять файлы к сообщениям
Вы не можете скачивать файлы

!ВНИМАНИЕ!
Сайт не предоставляет электронные версии произведений, а занимается лишь коллекционированием и каталогизацией ссылок, присылаемых и публикуемых на форуме нашими читателями. Если вы являетесь правообладателем какого-либо представленного материала и не желаете, чтобы ссылка на него находилась в нашем каталоге, свяжитесь с нами, и мы незамедлительно удалим ее. Файлы для обмена на трекере предоставлены пользователями сайта, и администрация не несет ответственности за их содержание. Просьба не заливать файлы, защищенные авторскими правами, а также файлы нелегального содержания!