[ Сегодня идет свободное скачивание без начисления Download ]


Статистика раздачи
Нет
 
   
 
Top  
 
 
Немножко женаты / The Five-Year Engagement
«Праздник, который вечно с тобой»
- Страна: США
Студия: Apatow Productions
Жанр: мелодрама, комедия
Год выпуска: 2012
Продолжительность: 02:04:27-Перевод: Профессиональный (дублированный) лицензия
Cубтитры: нет
Режиссер: Николас Столлер / Nicholas Stoller-В ролях: Джейсон Сигел (Tom Solomon), Эмили Блант (Violet Barnes), Крис Прэтт (Alex Eilhauer), Элисон Бри (Suzie Barnes-Eilhauer), Лоурен Уидман (Chef Sally), Мими Кеннеди (Carol Solomon), Дэвид Пэймер (Pete Solomon), Джеки Уивер (Sylvia Dickerson-Barnes), Джим Пиддок (George Barnes), Эрик Купер (B&B Manager), Дакота Джонсон (Audrey), Джейн Карр (Grandma Katherine).-Описание:
Он — предложил, она — согласилась! Казалось бы, дело в шляпе — почти женаты. Но свадьба становится невыполнимой миссией, когда в дело вступает отряд бывших подружек жениха, босс невесты, трещащий по швам список гостей и престарелые родственники, имеющие тенденцию умирать в самый неподходящий момент. И вроде бы немножко женаты, но все как-то не до конца…
-Сэмпл-Качество видео: BDRip (Исх.: The Five-Year Engagement.2012.BDRemux.mkv)
Формат видео: AVI
Видео: XviD build 65, 704x384 (16:9), 23.976 fps, 1290 kbps avg, 0.199 bit/pixel
Аудио: 48 kHz, AC3 Dolby Digital, 3/2 (L,C,R,l,r) + LFE ch, 384 kbps avg (Rus Dub)-

MediaInfo

Общее
Полное имя : D:\The.Five-Year.Engagement.2012.Dub.BDRip.XviD.AC3.avi
Формат : AVI
Формат/Информация : Audio Video Interleave
Размер файла : 1,46 Гбайт
Продолжительность : 2 ч. 4 м.
Общий поток : 1683 Кбит/сек
Программа кодирования : VirtualDubModRus 1.5.10.2 (build 2542/release)
Библиотека кодирования : VirtualDubMod build 2542/release
Видео
Идентификатор : 0
Формат : MPEG-4 Visual
Профиль формата : Advanced Simple@L5
Параметр BVOP формата : 1
Параметр QPel формата : Нет
Параметр GMC формата : Без точки перехода
Параметр матрицы формата : Выборочная
Идентификатор кодека : XVID
Идентификатор кодека/Подсказка : XviD
Продолжительность : 2 ч. 4 м.
Битрейт : 1290 Кбит/сек
Ширина : 704 пикселя
Высота : 384 пикселя
Соотношение сторон : 16:9
Частота кадров : 23,976 кадра/сек
Цветовое пространство : YUV
Субдискретизация насыщенности : 4:2:0
Битовая глубина : 8 бит
Тип развёртки : Прогрессивная
Метод сжатия : С потерями
Бит/(Пиксели*Кадры) : 0.199
Размер потока : 1,12 Гбайт (77%)
Библиотека кодирования : XviD 65
Аудио
Идентификатор : 1
Формат : AC-3
Формат/Информация : Audio Coding 3
Расширение режима : CM (complete main)
Идентификатор кодека : 2000
Продолжительность : 2 ч. 4 м.
Вид битрейта : Постоянный
Битрейт : 384 Кбит/сек
Каналы : 6 каналов
Расположение каналов : Front: L C R, Side: L R, LFE
Частота : 48,0 КГц
Битовая глубина : 16 бит
Метод сжатия : С потерями
Размер потока : 342 Мбайт (23%)
Выравнивание : Разделение по промежуткам
Продолжительность промежутка : 42 мс. (1,00 видеокадр)
Время предзагрузки промежутка : 500 мс.
Заголовок : Rus Dub
-

[Цитировать]



Показать сообщения:    

Текущее время: 09-Дек 08:54

Часовой пояс: UTC + 3


Вы не можете начинать темы
Вы не можете отвечать на сообщения
Вы не можете редактировать свои сообщения
Вы не можете удалять свои сообщения
Вы не можете голосовать в опросах
Вы не можете прикреплять файлы к сообщениям
Вы не можете скачивать файлы

!ВНИМАНИЕ!
Сайт не предоставляет электронные версии произведений, а занимается лишь коллекционированием и каталогизацией ссылок, присылаемых и публикуемых на форуме нашими читателями. Если вы являетесь правообладателем какого-либо представленного материала и не желаете, чтобы ссылка на него находилась в нашем каталоге, свяжитесь с нами, и мы незамедлительно удалим ее. Файлы для обмена на трекере предоставлены пользователями сайта, и администрация не несет ответственности за их содержание. Просьба не заливать файлы, защищенные авторскими правами, а также файлы нелегального содержания!