[ Сегодня идет свободное скачивание без начисления Download ]


Статистика раздачи
Нет
 
   
 
Top  
 
 
Рождество с Чилли / Chilly Christmas
Страна: США
Жанр: семейный, для детей от 6 лет
Год выпуска: 2012
Продолжительность: 01:18:21
Перевод: Профессиональный (двухголосый закадровый)
Cубтитры: нет
Режиссер: Грегори Поппен / Gregory Poppen
В ролях: Том Арнольд, Си Томас Хауэлл, Брук Лэнгтон, Кэйси Граф, Каран Брэр
Описание: Однажды, в канун рождественских праздников Санта-Клаус преподнес 10-летнему мальчику Бобби из Калифорнии потрясающий подарок: маленького озорного щенка Чилли. Проходит год. Накануне нового Рождества отец Бобби - полицейский-детектив, в одиночку воспитывающий сына, должен отбыть в Нью-Йорк к новому месту службы. Отец предлагает сыну найти для собаки новый дом, так как тот не сможет жить в городской квартире. Бобби не соглашается и пытается приучить Чилли к новому распорядку и образу жизни. Но неожиданно в их дом забирается вор, задумавший украсть Чилли. Смогут ли Бобби и его четверолапый друг защитить дом и противостоять коварному грабителю? Эта веселая рождественская комедия снята в традициях популярнейшей комедии "Один дома".
Сэмпл
Качество видео: DVDRip
Формат видео: AVI
Видео: XviD, 1083 Кбит/сек, 720х400, 16:9, 25,0 кадров/сек, 0.150 Бит/(Пиксели*Кадры)
Аудио: MP3, 48,0 КГц, 160 Кбит/сек, 2 кан.

MediaInfo

данные медиаинфо:
Общее
Полное имя : C:\фильмы\рождество с чилли\Рождество с Чилли.avi
Формат : AVI
Формат/Информация : Audio Video Interleave
Размер файла : 702 Мбайт
Продолжительность : 1 ч. 18 м.
Общий поток : 1252 Кбит/сек
Видео
Идентификатор : 0
Формат : MPEG-4 Visual
Профиль формата : Advanced Simple@L4
Параметр BVOP формата : Нет
Параметр QPel формата : Нет
Параметр GMC формата : Без точки перехода
Параметр матрицы формата : Default (H.263)
Идентификатор кодека : XVID
Идентификатор кодека/Подсказка : XviD
Продолжительность : 1 ч. 18 м.
Битрейт : 1083 Кбит/сек
Ширина : 720 пикселей
Высота : 400 пикселей
Соотношение сторон : 16:9
Частота кадров : 25,000 кадров/сек
Цветовое пространство : YUV
Субдискретизация насыщенности : 4:2:0
Битовая глубина : 8 бит
Тип развёртки : Прогрессивная
Метод сжатия : С потерями
Бит/(Пиксели*Кадры) : 0.150
Размер потока : 607 Мбайт (86%)
Библиотека кодирования : Lavc53.42.0
Аудио
Идентификатор : 1
Формат : MPEG Audio
Версия формата : Version 1
Профиль формата : Layer 3
Идентификатор кодека : 55
Идентификатор кодека/Подсказка : MP3
Продолжительность : 1 ч. 18 м.
Продолжительность оригинала : 1 ч. 18 м.
Вид битрейта : Постоянный
Битрейт : 160 Кбит/сек
Каналы : 2 канала
Частота : 48,0 КГц
Метод сжатия : С потерями
Размер потока : 89,7 Мбайт (13%)
Выравнивание : Соединение по промежуткам
Продолжительность промежутка : 40 мс. (1,00 видеокадр)

Скриншоты


[Цитировать]



Показать сообщения:    

Текущее время: 08-Дек 12:53

Часовой пояс: UTC + 3


Вы не можете начинать темы
Вы не можете отвечать на сообщения
Вы не можете редактировать свои сообщения
Вы не можете удалять свои сообщения
Вы не можете голосовать в опросах
Вы не можете прикреплять файлы к сообщениям
Вы не можете скачивать файлы

!ВНИМАНИЕ!
Сайт не предоставляет электронные версии произведений, а занимается лишь коллекционированием и каталогизацией ссылок, присылаемых и публикуемых на форуме нашими читателями. Если вы являетесь правообладателем какого-либо представленного материала и не желаете, чтобы ссылка на него находилась в нашем каталоге, свяжитесь с нами, и мы незамедлительно удалим ее. Файлы для обмена на трекере предоставлены пользователями сайта, и администрация не несет ответственности за их содержание. Просьба не заливать файлы, защищенные авторскими правами, а также файлы нелегального содержания!