[ Сегодня идет свободное скачивание без начисления Download ]


Статистика раздачи
Нет
 
   
 
Top  
 
 
Неповзрослевшие / Immaturi
Страна: Италия
Жанр: Комедия
Год выпуска: 2011
Продолжительность: 01:46:00
Перевод: Субтитры (Перевод с итальянского Scirocco 2011)
Cубтитры: русские
Оригинальная аудиодорожка: итальянский
Режиссер: Паоло Дженовезе / Paolo Genovese
В ролях: Рауль Бова (Джорджио), Лука Биццарри (Пьеро), Рики Мемфис (Лоренцо), Паоло Кессисоглу (Вирджилио), Амбра Аньолини (Франческа), Барбара Бобулова (Луиза), Луиза Раньери (Марта), Анита Каприоли (Элеонора), Джулия Микелини (Чинция), Аурора Джовиннацци (Пенелопе) и др.
Описание: Джорджио работает детским психиатром и готовится стать отцом. Лоренцо работает агентом по недвижимости и ни за что на свете не хочет съезжать из родительского дома, где он всегда может рассчитывать на завтрак в постель и вкусный обед. Луиза работает менеджером, она разведена и в одиночку воспитывает дочь. Франческа – шеф-повар, пытающаяся избавиться от сексуальной зависимости. Пьеро – ди-джей на радио, каждый вечер он ведет программу о ностальгических воспоминаниях о прошлом, от которых, впрочем, он сам никак не может избавиться. И, наконец, Вирджилио, по вине которого 20 лет назад его друзьям пришлось расстаться. Однако теперь шестеро бывших одноклассников, которым уже под сорок, встречаются вновь, получив уведомление из Министерства образования об отмене результатов их выпускных экзаменов и необходимости их повторной сдачи.
Качество видео: DVDRip
Формат видео: AVI
Видео: 640x272 (2.35:1), 25 fps, XviD MPEG-4 ~1325 kbps avg
Аудио: 48 kHz, AC3 Dolby Digital, 3/2 (L,C,R,l,r) + LFE ch, ~448 kbps
Формат субтитров: hardsub (неотключаемые)
Доп. информация о субтитрах: перевод Scirocco2011

MediaInfo

Формат : AVI
Формат/Информация : Audio Video Interleave
Размер файла : 1,33 Гбайт
Продолжительность : 1 ч. 46 м.
Общий поток : 1783 Кбит/сек
Программа кодирования : VirtualDubMod 1.5.10.2 (build 2540/release)
Библиотека кодирования : VirtualDubMod build 2540/release
Видео
Идентификатор : 0
Формат : MPEG-4 Visual
Профиль формата : Advanced Simple@L5
Параметр BVOP формата : 1
Параметр QPel формата : Нет
Параметр GMC формата : Без точки перехода
Параметр матрицы формата : Выборочная
Режим смешивания : Сжатый битовый поток
Идентификатор кодека : XVID
Идентификатор кодека/Подсказка : XviD
Продолжительность : 1 ч. 46 м.
Битрейт : 1326 Кбит/сек
Ширина : 640 пикселей
Высота : 272 пикселя
Соотношение сторон : 2,35:1
Частота кадров : 25,000 кадров/сек
Цветовое пространство : YUV
Субдискретизация насыщенности : 4:2:0
Битовая глубина : 8 бит
Тип развёртки : Прогрессивная
Метод сжатия : С потерями
Бит/(Пиксели*Кадры) : 0.305
Размер потока : 1015 Мбайт (74%)
Библиотека кодирования : XviD 64
Аудио
Идентификатор : 1
Формат : AC-3
Формат/Информация : Audio Coding 3
Расширение режима : CM (complete main)
Параметр Endianness формата : Big
Идентификатор кодека : 2000
Продолжительность : 1 ч. 46 м.
Вид битрейта : Постоянный
Битрейт : 448 Кбит/сек
Каналы : 6 каналов
Расположение каналов : Front: L C R, Side: L R, LFE
Частота : 48,0 КГц
Битовая глубина : 16 бит
Метод сжатия : С потерями
Размер потока : 343 Мбайт (25%)
Выравнивание : Разделение по промежуткам
Продолжительность промежутка : 40 мс. (1,00 видеокадр)
Время предзагрузки промежутка : 500 мс.

Скриншоты



[Цитировать]



Показать сообщения:    

Текущее время: 09-Дек 20:27

Часовой пояс: UTC + 3


Вы не можете начинать темы
Вы не можете отвечать на сообщения
Вы не можете редактировать свои сообщения
Вы не можете удалять свои сообщения
Вы не можете голосовать в опросах
Вы не можете прикреплять файлы к сообщениям
Вы не можете скачивать файлы

!ВНИМАНИЕ!
Сайт не предоставляет электронные версии произведений, а занимается лишь коллекционированием и каталогизацией ссылок, присылаемых и публикуемых на форуме нашими читателями. Если вы являетесь правообладателем какого-либо представленного материала и не желаете, чтобы ссылка на него находилась в нашем каталоге, свяжитесь с нами, и мы незамедлительно удалим ее. Файлы для обмена на трекере предоставлены пользователями сайта, и администрация не несет ответственности за их содержание. Просьба не заливать файлы, защищенные авторскими правами, а также файлы нелегального содержания!