[ Сегодня идет свободное скачивание без начисления Download ]


Статистика раздачи
Нет
 
   
 
Top  
 
 
МЫ. Верим в любовь / W.E.- Страна: Великобритания
Жанр: драма, мелодрама
Год выпуска: 2011
Продолжительность: 01:58:54-Перевод: Профессиональный (многоголосый закадровый) [лицензия]
Cубтитры: нет
Оригинальная аудиодорожка: английский-Режиссер: Мадонна / Madonna-В ролях: Эбби Корниш, Натали Дормер, Кэти МакГрат, Аннабелль Уоллис, Оскар Айзек, Андреа Райзборо, Джеймс Д’Арси, Ричард Койл, Лоуренс Фокс, Джеймс Фокс-Описание: Роман короля Великобритании Эдуарда VIII и американки Уоллис Симпсон взбудоражил общественность. На момент знакомства с принцем Эдуардом Симпсон была замужем, а король, если хотел жениться на ней, должен был отречься от престола. Но даже это не помешало их любви.- -Качество видео: HDRip | Сэмпл
Формат видео: AVI
Видео: XviD, 720x304, 2.35:1, 23.976 fps, 1702 kb/s
Аудио: AC3, 48000 KHz, 384 kb/s (6 ch)

MediaInfo

General
Complete name : E:\Новое\Mi.verim.v.lubov.2011.P.HDRip.avi
Format : AVI
Format/Info : Audio Video Interleave
File size : 2.06 GiB
Duration : 1h 58mn
Overall bit rate : 2 477 Kbps
Writing application : VirtualDubMod 1.5.10.2 (build 2540/release)
Writing library : VirtualDubMod build 2540/release
Video
ID : 0
Format : MPEG-4 Visual
Format profile : Advanced [email protected]
Format settings, BVOP : 2
Format settings, QPel : No
Format settings, GMC : No warppoints
Format settings, Matrix : Default (MPEG)
Codec ID : XVID
Codec ID/Hint : XviD
Duration : 1h 58mn
Bit rate : 1 600 Kbps
Width : 720 pixels
Height : 304 pixels
Display aspect ratio : 2.35:1
Frame rate : 23.976 fps
Color space : YUV
Chroma subsampling : 4:2:0
Bit depth : 8 bits
Scan type : Progressive
Compression mode : Lossy
Bits/(Pixel*Frame) : 0.305
Stream size : 1.33 GiB (65%)
Writing library : XviD 1.2.1 (UTC 2008-12-04)
Audio #1
ID : 1
Format : AC-3
Format/Info : Audio Coding 3
Mode extension : CM (complete main)
Format settings, Endianness : Big
Codec ID : 2000
Duration : 1h 58mn
Bit rate mode : Constant
Bit rate : 384 Kbps
Channel(s) : 6 channels
Channel positions : Front: L C R, Side: L R, LFE
Sampling rate : 48.0 KHz
Bit depth : 16 bits
Compression mode : Lossy
Delay relative to video : 7s 130ms
Stream size : 326 MiB (15%)
Alignment : Split accross interleaves
Audio #2
ID : 2
Format : AC-3
Format/Info : Audio Coding 3
Mode extension : CM (complete main)
Format settings, Endianness : Big
Codec ID : 2000
Duration : 1h 58mn
Bit rate mode : Constant
Bit rate : 384 Kbps
Channel(s) : 6 channels
Channel positions : Front: L C R, Side: L R, LFE
Sampling rate : 48.0 KHz
Bit depth : 16 bits
Compression mode : Lossy
Stream size : 327 MiB (16%)
Alignment : Split accross interleaves

Скриншоты

[Цитировать]



Показать сообщения:    

Текущее время: 06-Дек 11:07

Часовой пояс: UTC + 3


Вы не можете начинать темы
Вы не можете отвечать на сообщения
Вы не можете редактировать свои сообщения
Вы не можете удалять свои сообщения
Вы не можете голосовать в опросах
Вы не можете прикреплять файлы к сообщениям
Вы не можете скачивать файлы

!ВНИМАНИЕ!
Сайт не предоставляет электронные версии произведений, а занимается лишь коллекционированием и каталогизацией ссылок, присылаемых и публикуемых на форуме нашими читателями. Если вы являетесь правообладателем какого-либо представленного материала и не желаете, чтобы ссылка на него находилась в нашем каталоге, свяжитесь с нами, и мы незамедлительно удалим ее. Файлы для обмена на трекере предоставлены пользователями сайта, и администрация не несет ответственности за их содержание. Просьба не заливать файлы, защищенные авторскими правами, а также файлы нелегального содержания!