[ Сегодня идет свободное скачивание без начисления Download ]


Статистика раздачи
Нет
 
   
 
Top  
 
 
Особо опасны / Savages-UNRATED-«Молодые, красивые, дерзкие» -Страна: США
Жанр: Триллер, Драма, Криминал
Год выпуска: 2012
Продолжительность: 02:21:09-Перевод: Авторский (одноголосый закадровый) Ю.Сербин (ненорматив)
Cубтитры: русские
Оригинальная аудиодорожка: английский-Режиссер: Оливер Стоун / Oliver Stone-В ролях: Блейк Лайвли /Blake Lively/, Аарон Тейлор-Джонсон /Aaron Taylor-Johnson/, Джон Траволта /John Travolta/, Сальма Хайек /Salma Hayek/, Тейлор Китч /Taylor Kitsch/, Бенисио Дель Торо /Benicio Del Toro/, Демиан Бишир /Demian Bichir/, Антонио Джарамилло /Antonio Jaramillo/, Хоакин Косио /Joaquin Cosio/, Эмиль Хирш /Emile Hirsch/-Описание: Молодые миллионеры Бен и Чон ведут дела на побережье Калифорнии. Бен - выдающийся ботаник и талантливый бизнесмен, Чон - мастер возвращения долгов и борьбы с конкурентами. В их работе много сложных моментов, ведь они выращивают лучшую в мире траву. Особо серьезные проблемы решает знакомый агент ФБР.
Но с одной не сможет помочь даже он. Сверхприбыльным бизнесом заинтересовался мексиканский картель. Его возглавляет прекрасная Елена, и она нашла главную слабость друзей - и Бен, и Чон принадлежат одной девушке. Ради прелестной О. они готовы на все. Любовь делает нас особо опасными.- --Качество видео: BDRip / Исходник: (Blu-ray CEE)
Формат видео: AVI
Видео: 720x304 (2.37:1), 23.976 fps, XviD build 65 ~2053 kbps avg, 0.39 bit/pixel
Аудио: 48 kHz, AC3 Dolby Digital, 3/2 (L,C,R,l,r) + LFE ch, ~448.00 kbps avg / Ю.Сербин
Аудио 2: 48 kHz, AC3 Dolby Digital, 3/2 (L,C,R,l,r) + LFE ch, ~448.00 kbps avg / Оригинальная
Размер файла: 2985 Mb ( 2/3 DVD5)
Формат субтитров: softsub (SRT)
Доп. информация о субтитрах: Русские (полные, форсированные), Английские (полные (3 вида), SDH). Отдельно СПАСИБО : vinalord

MediaInfo

Format                           : AVI
Format/Info                      : Audio Video Interleave
Format profile                   : OpenDML
File size                        : 2.92 GiB
Duration                         : 2h 21mn
Overall bit rate                 : 2 957 Kbps
Movie name                       : Особо опасны / Savages (2012) [UNRATED]
Director                         : MECHANICAL ENGINEER (Blu-Ray)
Writing application              : VirtualDubMod 1.5.10.3 | www.virtualdub-fr.org || (build 2550/release)
Copyright                        : HQ-ViDEO
Comment                          : 25.01.2013
Video
ID                               : 0
Format                           : MPEG-4 Visual
Format profile                   : Advanced Simple@L5
Format settings, BVOP            : Yes
Format settings, QPel            : No
Format settings, GMC             : No warppoints
Format settings, Matrix          : Custom
Codec ID                         : XVID
Codec ID/Hint                    : XviD
Duration                         : 2h 21mn
Bit rate                         : 2 045 Kbps
Width                            : 720 pixels
Height                           : 304 pixels
Display aspect ratio             : 2.35:1
Frame rate                       : 23.976 fps
Color space                      : YUV
Chroma subsampling               : 4:2:0
Bit depth                        : 8 bits
Scan type                        : Progressive
Bits/(Pixel*Frame)               : 0.390
Stream size                      : 2.02 GiB (69%)
Writing library                  : XviD 65
Audio #1
ID                               : 1
Format                           : AC-3
Format/Info                      : Audio Coding 3
Mode extension                   : CM (complete main)
Codec ID                         : 2000
Duration                         : 2h 21mn
Bit rate mode                    : Constant
Bit rate                         : 448 Kbps
Channel(s)                       : 6 channels
Channel positions                : Front: L C R, Side: L R, LFE
Sampling rate                    : 48.0 KHz
Bit depth                        : 16 bits
Stream size                      : 452 MiB (15%)
Alignment                        : Split accross interleaves
Interleave, duration             : 42 ms (1.00 video frame)
Interleave, preload duration     : 500 ms
Audio #2
ID                               : 2
Format                           : AC-3
Format/Info                      : Audio Coding 3
Mode extension                   : CM (complete main)
Codec ID                         : 2000
Duration                         : 2h 21mn
Bit rate mode                    : Constant
Bit rate                         : 448 Kbps
Channel(s)                       : 6 channels
Channel positions                : Front: L C R, Side: L R, LFE
Sampling rate                    : 48.0 KHz
Bit depth                        : 16 bits
Stream size                      : 452 MiB (15%)
Alignment                        : Split accross interleaves
Interleave, duration             : 42 ms (1.00 video frame)
Interleave, preload duration     : 500 ms

[Цитировать]



Показать сообщения:    

Текущее время: 11-Дек 01:26

Часовой пояс: UTC + 3


Вы не можете начинать темы
Вы не можете отвечать на сообщения
Вы не можете редактировать свои сообщения
Вы не можете удалять свои сообщения
Вы не можете голосовать в опросах
Вы не можете прикреплять файлы к сообщениям
Вы не можете скачивать файлы

!ВНИМАНИЕ!
Сайт не предоставляет электронные версии произведений, а занимается лишь коллекционированием и каталогизацией ссылок, присылаемых и публикуемых на форуме нашими читателями. Если вы являетесь правообладателем какого-либо представленного материала и не желаете, чтобы ссылка на него находилась в нашем каталоге, свяжитесь с нами, и мы незамедлительно удалим ее. Файлы для обмена на трекере предоставлены пользователями сайта, и администрация не несет ответственности за их содержание. Просьба не заливать файлы, защищенные авторскими правами, а также файлы нелегального содержания!