[ Сегодня идет свободное скачивание без начисления Download ]


Статистика раздачи
Нет
 
   
 
Top  
 
 
-Волкодав (2006) [1080p] BDRip- Русское название: Волкодав
Год выпуска: 2006
Страна: Россия
Слоган: «Рожден рабом...»
Жанр: фэнтези, боевик, приключения--Режиссер: Николай Лебедев
Актеры: Александр Бухаров (Волкодав), Оксана Акиньшина (Кнесинка Елень), Александр Домогаров (Людоед), Игорь Петренко (Лучезар), Юозас Будрайтис (Дунгорм), Резо Эсадзе (Иллад), Артем Семакин (Эврих), Наталья Варлей (Мать Кендарат), Татьяна Лютаева (Лекарка), Анатолий Белый (Винитар), Лилиан Наврозашвили (Эртан), Андрей Руденский (Тилорн)-Описание фильма: Он был обречен на гибель, но выжил, чтобы отомстить за истребление своего рода. Последний человек из племени Серых Псов стал могучим воином, называющим себя Волкодав. Избежав смерти в подземных рудниках, Волкодав пускается в путь в сопровождении своего спутника, Нелетучего Мыша. Волкодав одержим желанием покарать Людоеда, уничтожившего деревню Серых Псов. Добравшись до замка заклятого врага, Волкодав жестоко расправляется с Людоедом. Там же он освобождает двух пленников, мудреца Тилорна и рабыню Ниилит. Вместе с ними Волкодав попадает в город Галирад, переживающий смутные времена. Кнес Галирада, стремясь спасти город от разорения, сватает свою дочь Елень за молодого воина Винитара, обещающего защиту Галираду. Юной кнесинке предстоит дальняя дорога в земли будущего мужа. Она просит Волкодава стать ее телохранителем в опасном путешествии. Согласившись служить кнесинке, Волкодав оказывается втянутым в водоворот таинственных событий, проливающих свет на истинную цель поездки...- -Продолжительность: 02:22:00
Перевод: Не требуется (русский)
Язык субтитров: Болгарский
Вид субтитров: Вшитые отключаемые--Качество видео: BDRip
Видеокодек: MPEG-4 AVC/H.264
Битрейт видео: ~10.3 Мбит/с
Размер кадра: 1904x816
Аудио 1: Русский; AC3; 5.1; 48 kHz; 640 kbps
Аудио 2: Англ-ий; AC3; 5.1; 48 kHz; 640 kbps
-

MediaInfo:

General
Unique ID : 174636357260187621396497546948063142748 (0x8361BD2DF6DF60E5B762CC079E32235C)
Complete name : G:\Volkodav.Iz.Roda.Serih.Psov.2006.1080p.BDRip.mkv
Format : Matroska
Format version : Version 2
File size : 11.5 GiB
Duration : 2h 22mn
Overall bit rate : 11.6 Mbps
Encoded date : UTC 2011-09-14 14:28:29
Writing application : mkvmerge v3.4.0 ('Rapunzel') built on May 15 2010 09:38:20
Writing library : libebml v0.8.0 + libmatroska v0.9.0
Video
ID : 1
Format : AVC
Format/Info : Advanced Video Codec
Format profile : High@L4.1
Format settings, CABAC : Yes
Format settings, ReFrames : 5 frames
Codec ID : V_MPEG4/ISO/AVC
Duration : 2h 22mn
Bit rate : 10.3 Mbps
Width : 1 904 pixels
Height : 816 pixels
Display aspect ratio : 2.35:1
Frame rate : 23.976 fps
Color space : YUV
Chroma subsampling : 4:2:0
Bit depth : 8 bits
Scan type : Progressive
Bits/(Pixel*Frame) : 0.277
Stream size : 9.99 GiB (87%)
Writing library : x264 core 116 r2074 2641b9e
Encoding settings : cabac=1 / ref=5 / deblock=1:-3:-3 / analyse=0x3:0x133 / me=umh / subme=10 / psy=1 / psy_rd=1.00:0.05 / mixed_ref=1 / me_range=48 / chroma_me=1 / trellis=2 / 8x8dct=1 / cqm=0 / deadzone=21,11 / fast_pskip=0 / chroma_qp_offset=-3 / threads=6 / sliced_threads=0 / nr=0 / decimate=1 / interlaced=0 / bluray_compat=0 / constrained_intra=0 / bframes=6 / b_pyramid=2 / b_adapt=2 / b_bias=0 / direct=3 / weightb=1 / open_gop=0 / weightp=2 / keyint=250 / keyint_min=24 / scenecut=40 / intra_refresh=0 / rc_lookahead=60 / rc=2pass / mbtree=1 / bitrate=10302 / ratetol=1.0 / qcomp=0.70 / qpmin=1 / qpmax=69 / qpstep=4 / cplxblur=20.0 / qblur=0.5 / vbv_maxrate=50000 / vbv_bufsize=50000 / nal_hrd=none / ip_ratio=1.40 / aq=2:0.90
Default : No
Forced : No
Audio #1
ID : 2
Format : AC-3
Format/Info : Audio Coding 3
Mode extension : CM (complete main)
Format settings, Endianness : Big
Codec ID : A_AC3
Duration : 2h 22mn
Bit rate mode : Constant
Bit rate : 640 Kbps
Channel(s) : 6 channels
Channel positions : Front: L C R, Side: L R, LFE
Sampling rate : 48.0 KHz
Bit depth : 16 bits
Compression mode : Lossy
Stream size : 650 MiB (6%)
Language : Russian
Default : No
Forced : No
Audio #2
ID : 3
Format : AC-3
Format/Info : Audio Coding 3
Mode extension : CM (complete main)
Format settings, Endianness : Big
Codec ID : A_AC3
Duration : 2h 22mn
Bit rate mode : Constant
Bit rate : 640 Kbps
Channel(s) : 6 channels
Channel positions : Front: L C R, Side: L R, LFE
Sampling rate : 48.0 KHz
Bit depth : 16 bits
Compression mode : Lossy
Stream size : 650 MiB (6%)
Language : English
Default : No
Forced : No
Text
ID : 4
Format : UTF-8
Codec ID : S_TEXT/UTF8
Codec ID/Info : UTF-8 Plain Text
Language : Bulgarian
Default : Yes
Forced : Yes
Menu
00:00:00.000 : en:00:00:00.000
00:07:17.854 : en:00:07:17.854
00:11:49.375 : en:00:11:49.375
00:14:35.166 : en:00:14:35.166
00:19:08.230 : en:00:19:08.230
00:24:34.890 : en:00:24:34.890
00:30:20.027 : en:00:30:20.027
00:37:31.040 : en:00:37:31.040
00:45:22.470 : en:00:45:22.470
00:50:50.506 : en:00:50:50.506
00:54:43.447 : en:00:54:43.447
01:04:55.183 : en:01:04:55.183
01:14:08.402 : en:01:14:08.402
01:24:05.582 : en:01:24:05.582
01:29:35.328 : en:01:29:35.328
01:40:03.456 : en:01:40:03.456
01:46:16.328 : en:01:46:16.328
01:54:54.805 : en:01:54:54.805
02:00:23.299 : en:02:00:23.299
02:08:56.479 : en:02:08:56.479
02:15:40.132 : en:02:15:40.132
-Скриншоты:
-Время раздачи: С 09:00 до 24:00

[Цитировать]



Показать сообщения:    

Текущее время: 07-Дек 19:28

Часовой пояс: UTC + 3


Вы не можете начинать темы
Вы не можете отвечать на сообщения
Вы не можете редактировать свои сообщения
Вы не можете удалять свои сообщения
Вы не можете голосовать в опросах
Вы не можете прикреплять файлы к сообщениям
Вы не можете скачивать файлы

!ВНИМАНИЕ!
Сайт не предоставляет электронные версии произведений, а занимается лишь коллекционированием и каталогизацией ссылок, присылаемых и публикуемых на форуме нашими читателями. Если вы являетесь правообладателем какого-либо представленного материала и не желаете, чтобы ссылка на него находилась в нашем каталоге, свяжитесь с нами, и мы незамедлительно удалим ее. Файлы для обмена на трекере предоставлены пользователями сайта, и администрация не несет ответственности за их содержание. Просьба не заливать файлы, защищенные авторскими правами, а также файлы нелегального содержания!