[ Сегодня идет свободное скачивание без начисления Download ]


Статистика раздачи
Нет
 
   
 
Top  
 
 
-Дар / The Gift (2000) BDRip- Русское название: Дар
Оригинальное название: The Gift
Год выпуска: 2000
Страна: США
Слоган: «It was the perfect crime... Except someone saw it all»
Жанр: Фэнтези, триллер, драма, криминал, детектив--Режиссер: Сэм Рэйми
Актеры: Кейт Бланшетт (Annabelle 'Annie' Wilson), Джованни Рибизи (Buddy Cole), Киану Ривз (Donnie Barksdale), Кэти Холмс (Jessica King), Грег Киннер (Wayne Collins), Хилари Суэнк (Valerie Barksdale), Майкл Джитер (Gerald Weems), Ким Диккенс (Linda), Гэри Коул (David Duncan), Розмари Харрис (Annie's Granny), Дж.К. Симмонс (Sheriff Pearl Johnson), Челси Росс (Kenneth King)-Описание: Вдова Энни Уилсон наделена редким даром ясновидения. И когда происходит таинственное убийство девушки из богатой семьи, ее талант приходится как нельзя кстати в установлении личности убийцы. Но все не так просто, как кажется. Дар опасен для своего носителя, разрушает психику героини и не дает однозначных ответов. Тем временем круг подозреваемых расширяется с каждым днем, вовлекая в эпицентр событий все новых персонажей, каждый из которых может быть убийцей. И чем дальше продвигается Энни в своем расследовании, тем четче осознает, что поиск правды может сокрушить ее разум.- -Продолжительность: 01:51:49
Перевод: Многоголосый закадровый, Авторский одноголосый
Язык субтитров: Русский, английский
Вид субтитров: Вшитые, отключаемые--Качество видео: BDRip
Видеокодек: MPEG-4 AVC/H.264
Битрейт видео: ~8500 kbps
Размер кадра: 1280x692
Аудио 1: Русский: 48 kHz, AC3 5.1, ~384 kbps avg - Многоголосый
Аудио 2: Русский: 48 kHz, DTS 5.1, ~1536 kbps avg - (Ю.Живов)
Аудио 3: Англ-ий: 48 kHz, AC3 5.1, ~640 kbps avg
-

Mediainfo

General
Unique ID : 229388510727739077121839990526189474670 (0xAC929EC3850DF84CAC42DA6F0F9B936E)
Complete name : G:\The.Gift.2000.720p.BDRip.mkv
Format : Matroska
Format version : Version 2
File size : 8.67 GiB
Duration : 1h 51mn
Overall bit rate : 11.1 Mbps
Encoded date : UTC 2011-06-06 13:05:01
Writing application : mkvmerge v3.4.0 ('Rapunzel') сборка от May 15 2010 09:38:20
Writing library : libebml v0.8.0 + libmatroska v0.9.0
Video
ID : 1
Format : AVC
Format/Info : Advanced Video Codec
Format profile : [email protected]
Format settings, CABAC : Yes
Format settings, ReFrames : 9 frames
Codec ID : V_MPEG4/ISO/AVC
Duration : 1h 51mn
Bit rate : 8 500 Kbps
Width : 1 280 pixels
Height : 692 pixels
Display aspect ratio : 1.85:1
Frame rate : 24.000 fps
Color space : YUV
Chroma subsampling : 4:2:0
Bit depth : 8 bits
Scan type : Progressive
Bits/(Pixel*Frame) : 0.400
Stream size : 6.47 GiB (75%)
Writing library : x264 core 115 r1937 aa21558
Encoding settings : cabac=1 / ref=9 / deblock=1:-3:-3 / analyse=0x3:0x113 / me=umh / subme=9 / psy=1 / psy_rd=1.30:0.00 / mixed_ref=1 / me_range=16 / chroma_me=1 / trellis=2 / 8x8dct=1 / cqm=0 / deadzone=21,11 / fast_pskip=0 / chroma_qp_offset=-2 / threads=6 / sliced_threads=0 / nr=0 / decimate=0 / interlaced=0 / bluray_compat=0 / constrained_intra=0 / bframes=9 / b_pyramid=2 / b_adapt=2 / b_bias=0 / direct=3 / weightb=1 / open_gop=0 / weightp=2 / keyint=250 / keyint_min=24 / scenecut=40 / intra_refresh=0 / rc=2pass / mbtree=0 / bitrate=8500 / ratetol=1.0 / qcomp=0.60 / qpmin=0 / qpmax=69 / qpstep=4 / cplxblur=20.0 / qblur=0.5 / ip_ratio=1.40 / pb_ratio=1.30 / aq=1:0.50
Language : English
Default : No
Forced : No
Audio #1
ID : 2
Format : AC-3
Format/Info : Audio Coding 3
Mode extension : CM (complete main)
Format settings, Endianness : Big
Codec ID : A_AC3
Duration : 1h 51mn
Bit rate mode : Constant
Bit rate : 448 Kbps
Channel(s) : 6 channels
Channel positions : Front: L C R, Side: L R, LFE
Sampling rate : 48.0 KHz
Bit depth : 16 bits
Compression mode : Lossy
Stream size : 358 MiB (4%)
Title : Mnogo
Language : Russian
Default : Yes
Forced : No
Audio #2
ID : 3
Format : DTS
Format/Info : Digital Theater Systems
Codec ID : A_DTS
Duration : 1h 51mn
Bit rate mode : Constant
Bit rate : 1 510 Kbps
Channel(s) : 6 channels
Channel positions : Front: L C R, Side: L R, LFE
Sampling rate : 48.0 KHz
Bit depth : 16 bits
Compression mode : Lossy
Stream size : 1.18 GiB (14%)
Title : Zivov
Language : Russian
Default : No
Forced : No
Audio #3
ID : 4
Format : AC-3
Format/Info : Audio Coding 3
Mode extension : CM (complete main)
Format settings, Endianness : Big
Codec ID : A_AC3
Duration : 1h 51mn
Bit rate mode : Constant
Bit rate : 640 Kbps
Channel(s) : 6 channels
Channel positions : Front: L C R, Side: L R, LFE
Sampling rate : 48.0 KHz
Bit depth : 16 bits
Compression mode : Lossy
Stream size : 512 MiB (6%)
Language : English
Default : No
Forced : No
Text #1
ID : 5
Format : UTF-8
Codec ID : S_TEXT/UTF8
Codec ID/Info : UTF-8 Plain Text
Language : Russian
Default : No
Forced : No
Text #2
ID : 6
Format : UTF-8
Codec ID : S_TEXT/UTF8
Codec ID/Info : UTF-8 Plain Text
Language : English
Default : No
Forced : No
Menu
00:00:00.000 : en:00:00:00.000
00:05:43.083 : en:00:05:43.083
00:11:11.625 : en:00:11:11.625
00:15:20.208 : en:00:15:20.208
00:21:10.417 : en:00:21:10.417
00:25:53.042 : en:00:25:53.042
00:30:23.208 : en:00:30:23.208
00:36:01.333 : en:00:36:01.333
00:41:58.833 : en:00:41:58.833
00:46:40.042 : en:00:46:40.042
00:51:30.208 : en:00:51:30.208
01:02:01.833 : en:01:02:01.833
01:11:18.625 : en:01:11:18.625
01:19:52.208 : en:01:19:52.208
01:30:05.208 : en:01:30:05.208
01:48:03.042 : en:01:48:03.042
-Скриншоты:
-Время раздачи: С 09:00 до 24:00

[Цитировать]



Показать сообщения:    

Текущее время: 05-Дек 13:35

Часовой пояс: UTC + 3


Вы не можете начинать темы
Вы не можете отвечать на сообщения
Вы не можете редактировать свои сообщения
Вы не можете удалять свои сообщения
Вы не можете голосовать в опросах
Вы не можете прикреплять файлы к сообщениям
Вы не можете скачивать файлы

!ВНИМАНИЕ!
Сайт не предоставляет электронные версии произведений, а занимается лишь коллекционированием и каталогизацией ссылок, присылаемых и публикуемых на форуме нашими читателями. Если вы являетесь правообладателем какого-либо представленного материала и не желаете, чтобы ссылка на него находилась в нашем каталоге, свяжитесь с нами, и мы незамедлительно удалим ее. Файлы для обмена на трекере предоставлены пользователями сайта, и администрация не несет ответственности за их содержание. Просьба не заливать файлы, защищенные авторскими правами, а также файлы нелегального содержания!