[ Сегодня идет свободное скачивание без начисления Download ]


Статистика раздачи
Нет
 
   
 
Top  
 
 
-100 футов / 100 Feet (2008) BDRemux [1080p]- Русское название: 100 футов
Оригинальное название: 100 Feet
Год выпуска: 2008
Жанр: Ужасы, Триллер
Описание фильма:
Марни Уотсон освобождают из тюрьмы, где она отбывала наказание за убийство своего мужа. Теперь главная героиня сидит под домашним арестом с электронным устройством на ноге, которое не позволяет ей покинуть 100-футовый радиус. Тем временем в доме появляется призрак убиенного супруга, желающий мести...
«Пока смерть не разлучит нас...и дольше...»
Режиссер: Эрик Ред / Eric Red
Актеры: Фамке Янссен, Бобби Каннавале, Эд Вествик, Майкл Паре, Патриция Шарбонно, Джон Фэллон, Кевин Гир, Тибор Палффи, Кембе Сорел, Эвелин Кандеч, Кен Келш
Продолжительность: 01:36:23
Перевод: Многоголосый закадровый

Видеокодек: MPEG-4 AVC/H.264
Битрейт видео: ~19.9 Mbps
Размер кадра: 1920x1080
Качество видео: BDRemux
Тип релиза: BDRemux 1080p
Контейнер: MKV
Видео: MPEG-4 AVC Video / 19.9 Mbps / 1080p / 23,976 fps / 16:9 / High Profile 4.1
Аудио #1: Русский: 48 kHz, AC3, 3/2 (L,C,R,l,r) + LFE ch, ~384.00 kbps avg - [MVO, R5]
Аудио #2: Русский: 48 kHz, AC3, 2/0 (L,R), ~192.00 kbps avg - [DVO ELEKTRI4KA]
Аудио #3: Украинский: 48 kHz, AC3, 2/0 (L,R), ~192.00 kbps avg - [DVO, 1+1]
Аудио #4: Английский: DTS-HD Master Audio 5.1 / (48 kHz / 1971 kbps / 16-bit) (DTS Core: 5.1 / 48 kHz / 1510 kbps / 16-bit) - [Original]
Формат субтитров: softsub (SRT)
Субтитры: русские, английские
Чаптеры: Сохранены оригинальные чаптеры с Blu-Ray

MediaInfo

Код:
Format : Matroska
File size : 20.5 GiB
Duration : 1h 36mn
Overall bit rate : 30.5 Mbps
Movie name : Arifis for GORESEWAGE
Encoded date : UTC 2013-02-05 09:32:01
Writing application : mkvmerge v5.2.1 ('A Far Off Place') built on Jan 2 2012 23:21:10
Writing library : libebml v1.2.3 + libmatroska v1.3.0
Video
ID : 1
Format : VC-1
Format profile : AP@L3
Codec ID : WVC1
Codec ID/Hint : Microsoft
Duration : 1h 36mn
Bit rate : 27.5 Mbps
Width : 1 920 pixels
Height : 1 080 pixels
Display aspect ratio : 16:9
Frame rate : 23.976 fps
Chroma subsampling : 4:2:0
Bit depth : 8 bits
Scan type : Progressive
Compression mode : Lossy
Bits/(Pixel*Frame) : 0.553
Stream size : 18.5 GiB (90%)
Audio #1
ID : 2
Format : AC-3
Format/Info : Audio Coding 3
Mode extension : CM (complete main)
Codec ID : A_AC3
Duration : 1h 36mn
Bit rate mode : Constant
Bit rate : 384 Kbps
Channel(s) : 6 channels
Channel positions : Front: L C R, Side: L R, LFE
Sampling rate : 48.0 KHz
Bit depth : 16 bits
Compression mode : Lossy
Stream size : 265 MiB (1%)
Title : AC3 5.1 @ 384 kbps - MVO, R5
Language : Russian
Audio #2
ID : 3
Format : AC-3
Format/Info : Audio Coding 3
Mode extension : CM (complete main)
Codec ID : A_AC3
Duration : 1h 36mn
Bit rate mode : Constant
Bit rate : 192 Kbps
Channel(s) : 2 channels
Channel positions : Front: L R
Sampling rate : 48.0 KHz
Bit depth : 16 bits
Compression mode : Lossy
Stream size : 132 MiB (1%)
Title : АС3 2.0 @ 192 kbps - DVO ELEKTRI4KA
Language : Russian
Audio #3
ID : 4
Format : AC-3
Format/Info : Audio Coding 3
Mode extension : CM (complete main)
Codec ID : A_AC3
Duration : 1h 36mn
Bit rate mode : Constant
Bit rate : 192 Kbps
Channel(s) : 2 channels
Channel positions : Front: L R
Sampling rate : 48.0 KHz
Bit depth : 16 bits
Compression mode : Lossy
Stream size : 132 MiB (1%)
Title : АС3 2.0 @ 192 kbps - DVO, 1+1
Language : Ukrainian
Audio #4
ID : 5
Format : DTS
Format/Info : Digital Theater Systems
Format profile : MA / Core
Codec ID : A_DTS
Duration : 1h 36mn
Bit rate mode : Variable
Bit rate : 1 627 Kbps / 1 510 Kbps
Channel(s) : 6 channels
Channel positions : Front: L C R, Side: L R, LFE
Sampling rate : 48.0 KHz
Bit depth : 16 bits
Compression mode : Lossless / Lossy
Title : DTS-HD MA 5.1 Original @ 1971 kbps
Language : English
Text #1
ID : 6
Format : UTF-8
Codec ID : S_TEXT/UTF8
Codec ID/Info : UTF-8 Plain Text
Title : Full Rus
Language : Russian
Text #2
ID : 7
Format : UTF-8
Codec ID : S_TEXT/UTF8
Codec ID/Info : UTF-8 Plain Text
Title : Full Eng
Language : English
Menu
00:00:00.000 : :Chapter 01
00:08:38.976 : :Chapter 02
00:17:41.518 : :Chapter 03
00:23:43.004 : :Chapter 04
00:33:59.370 : :Chapter 05
00:44:56.610 : :Chapter 06
00:55:24.112 : :Chapter 07
01:00:17.405 : :Chapter 08
01:05:36.349 : :Chapter 09
01:14:21.498 : :Chapter 10
01:21:15.120 : :Chapter 11
01:32:47.311 : :Chapter 12
Скриншоты:


Время раздачи:24/7

[Цитировать]



Показать сообщения:    

Текущее время: 08-Дек 07:08

Часовой пояс: UTC + 3


Вы не можете начинать темы
Вы не можете отвечать на сообщения
Вы не можете редактировать свои сообщения
Вы не можете удалять свои сообщения
Вы не можете голосовать в опросах
Вы не можете прикреплять файлы к сообщениям
Вы не можете скачивать файлы

!ВНИМАНИЕ!
Сайт не предоставляет электронные версии произведений, а занимается лишь коллекционированием и каталогизацией ссылок, присылаемых и публикуемых на форуме нашими читателями. Если вы являетесь правообладателем какого-либо представленного материала и не желаете, чтобы ссылка на него находилась в нашем каталоге, свяжитесь с нами, и мы незамедлительно удалим ее. Файлы для обмена на трекере предоставлены пользователями сайта, и администрация не несет ответственности за их содержание. Просьба не заливать файлы, защищенные авторскими правами, а также файлы нелегального содержания!