[ Сегодня идет свободное скачивание без начисления Download ]


Статистика раздачи
Нет
 
   
 
Top  
 
 
-Гонки Пушечное ядро 3 (Зона скорости) / Speed Zone! (Cannonball Fever, The Cannonball Run 3) (1989) DVDRip- Страна: Канада
Русское название: Гонки Пушечное ядро 3 (Зона скорости)
Оригинальное название: Speed Zone! (Cannonball Fever, The Cannonball Run 3)
Год выпуска: 1989
Жанр: Комедия
Описание фильма:
Объявляется о начале самой невероятной автогонки по дорогам Америки. Правил практически не существует. Участвовать могут все, кто хоть немного разбирается в педалях. Поэтому в гонщики записываются все, кому не лень. А виной всему — шериф штата, который сорвал участие в гонках настоящих спортсменов. Но соревнования от этого не только не проигрывают, а становятся настоящим приключением.
Режиссер: Том Манкевич / Tom Mankiewicz
Актеры: Джон Кэнди, Мэриэл Хемингуэй, Эмма Саммс, Рэймонд Барр, Дилан Бэйкер, Чарльз Рокет, Дэвид Раш, Андреа Томпсон, Зэк Гренье, Джерри Орбах
Продолжительность: 01:30:28
Перевод: Многоголосный закадровый

Качество: DVDRip by TiTBiT
Формат: AVI
Видео: XviD, 516x384 (1.34:1), 25 fps, XviD build 46 ~2257 kbps avg, 0.46 bit/pixel
Аудио 1: MPEG Layer 3, 48 kHz, 2 ch, ~128.00 kbps avg, Русский, Многоголосый закадровый (телекананал РТР)
Аудио 2: MPEG Layer 3, 48 kHz, 2 ch, ~128.00 kbps avg, Original, English
Субтитры: нет
Сэмпл: Ссылка

Mediainfo

General
Complete name : Гонки Пушечное ядро 3 (Зона скорости). Speed Zone! (Cannonball Fever, The Cannonball Run 3). 1989. DVDRip.avi
Format : AVI
Format/Info : Audio Video Interleave
File size : 1.60 GiB
Duration : 1h 30mn
Overall bit rate : 2 529 Kbps
Movie name : Speed Zone!
Genre : Comedy
Writing application : VirtualDubMod 1.5.10.2 (build 2542/release)
Original source form/Name : Movie
Comment : Rip by TiTBiT
Video
ID : 0
Format : MPEG-4 Visual
Format profile : Advanced Simple@L5
Format settings, BVOP : 2
Format settings, QPel : No
Format settings, GMC : No warppoints
Format settings, Matrix : Default (MPEG)
Codec ID : XVID
Codec ID/Hint : XviD
Duration : 1h 30mn
Bit rate : 2 258 Kbps
Width : 516 pixels
Height : 384 pixels
Display aspect ratio : 4:3
Frame rate : 25.000 fps
Color space : YUV
Chroma subsampling : 4:2:0
Bit depth : 8 bits
Scan type : Progressive
Compression mode : Lossy
Bits/(Pixel*Frame) : 0.456
Stream size : 1.43 GiB (89%)
Writing library : XviD 1.1.2 (UTC 2006-11-01)
Audio #1
ID : 1
Format : MPEG Audio
Format version : Version 1
Format profile : Layer 3
Mode : Joint stereo
Mode extension : MS Stereo
Codec ID : 55
Codec ID/Hint : MP3
Duration : 1h 30mn
Bit rate mode : Constant
Bit rate : 128 Kbps
Channel(s) : 2 channels
Sampling rate : 48.0 KHz
Compression mode : Lossy
Stream size : 82.8 MiB (5%)
Alignment : Aligned on interleaves
Interleave, duration : 40 ms (1.00 video frame)
Interleave, preload duration : 504 ms
Audio #2
ID : 2
Format : MPEG Audio
Format version : Version 1
Format profile : Layer 3
Codec ID : 55
Codec ID/Hint : MP3
Duration : 1h 30mn
Bit rate mode : Constant
Bit rate : 128 Kbps
Channel(s) : 1 channel
Sampling rate : 48.0 KHz
Compression mode : Lossy
Stream size : 82.8 MiB (5%)
Alignment : Aligned on interleaves
Interleave, duration : 40 ms (1.00 video frame)
Interleave, preload duration : 504 ms

Дополнительно о рипе

Рип был найден (by TiTBiT) в сети. Звук был взят, и очищен от шумов, с VHSRip'а. Благодарим H-K

Альтернативные описания фильма

Вновь автомобильные гонки через всю Америку. Вновь разношерстная толпа претендентов на первое место. А воинственно настроенный шериф всех участников гонок готов навсегда упечь за решетку. Макенский
Дурацкая приключенческая комедия со множеством персонажей. Гонки "Пушечное Ядро" по дорогам Америки - под угрозой срыва, и тогда за баранки разнокалиберных авто садятся лихие дилетанты. Иванов М.
Скриншоты:


Время раздачи: С 10:00 до 17:00 (мск)

[Цитировать]



Показать сообщения:    

Текущее время: 08-Дек 01:15

Часовой пояс: UTC + 3


Вы не можете начинать темы
Вы не можете отвечать на сообщения
Вы не можете редактировать свои сообщения
Вы не можете удалять свои сообщения
Вы не можете голосовать в опросах
Вы не можете прикреплять файлы к сообщениям
Вы не можете скачивать файлы

!ВНИМАНИЕ!
Сайт не предоставляет электронные версии произведений, а занимается лишь коллекционированием и каталогизацией ссылок, присылаемых и публикуемых на форуме нашими читателями. Если вы являетесь правообладателем какого-либо представленного материала и не желаете, чтобы ссылка на него находилась в нашем каталоге, свяжитесь с нами, и мы незамедлительно удалим ее. Файлы для обмена на трекере предоставлены пользователями сайта, и администрация не несет ответственности за их содержание. Просьба не заливать файлы, защищенные авторскими правами, а также файлы нелегального содержания!