[ Сегодня идет свободное скачивание без начисления Download ]


Статистика раздачи
Нет
 
   
 
Top  
 
 
-Вооружены и опасны / Armed and Dangerous (1986) BDRip- Страна: США
Русское название: Вооружены и опасны
Оригинальное название: Armed and Dangerous
Год выпуска: 1986
Жанр: Боевик, Комедия, Криминал
Описание фильма:
Бывший полицейский Фрэнк Дули, уволенный по ошибке за взяточничество, находит друга в лице некомпетентного и бездарного адвоката, которого тоже вышвырнули с работы. Фрэнк и его приятель устраиваются вместе на работу в охранную фирму.
Но и на новом месте работы они не добиваются успеха и наживают врагов. Бывшего полицейского и бывшего адвоката начинают ненавидеть все сотрудники фирмы. Два неудачника должны совершить нечто такое, что заставит окружающих изменить мнение об их способностях…
Режиссер: Марк Л. Лестер / Mark L. Lester
Актеры: Джон Кэнди, Юджин Леви, Роберт Лоджа, Кеннет МакМиллан, Мег Райан, Брайон Джеймс, Савелий Крамаров
Продолжительность: 01:27:32
Перевод: Многоголосый закадровый, Одноголосный закадровый

Качество: BDRip
Формат: MKV
Видео: XviD, 704x384 (1.83:1), 23.976 fps, 1988 kbps avg, 0.31 bit/pixel
Аудио 1: AC3 Dolby Digital, 2/0 (L,R) ch, 192.00 kbps avg, Русский, Одноголосный закадровый (Гаврилов)
Аудио 2: AC3 Dolby Digital, 2/0 (L,R) ch, 192.00 kbps avg, Русский, Одноголосный закадровый (Марченко)
Аудио 3: AC3 Dolby Digital, 2/0 (L,R) ch, 192.00 kbps avg, Русский, Многоголосый закадровый (Первый канал)
Аудио 4: AC3 Dolby Digital, 2/0 (L,R) ch, 192.00 kbps avg, Русский, Многоголосый закадровый (СТС)
Аудио 5: AC3 Dolby Digital, 2/0 (L,R) ch, 192.00 kbps avg, Original, English
Субтитры: Английские
Сэмпл: Ссылка

Mediainfo

General
Complete name : Вооружены и опасны. Armed and Dangerous.1986. (Боевик, комедия, криминал). BDRip.mkv
Format : Matroska
Format version : Version 1
File size : 1.81 GiB
Duration : 1h 27mn
Overall bit rate : 2 953 Kbps
Encoded date : UTC 2011-09-08 16:21:27
Writing application : mkvmerge v2.4.0 ('Fumbling Towards Ecstasy') built on Oct 11 2008 20:13:15
Writing library : libebml v0.7.7 + libmatroska v0.8.1
Video
ID : 1
Format : MPEG-4 Visual
Format profile : Advanced [email protected]
Format settings, BVOP : Yes
Format settings, QPel : No
Format settings, GMC : No warppoints
Format settings, Matrix : Custom
Codec ID : V_MS/VFW/FOURCC / XVID
Codec ID/Hint : XviD
Duration : 1h 27mn
Bit rate : 1 935 Kbps
Width : 704 pixels
Height : 384 pixels
Display aspect ratio : 1.85:1
Frame rate mode : Constant
Frame rate : 23.976 fps
Color space : YUV
Chroma subsampling : 4:2:0
Bit depth : 8 bits
Scan type : Progressive
Compression mode : Lossy
Bits/(Pixel*Frame) : 0.298
Stream size : 1.18 GiB (66%)
Title : Вооружены и опасны / Armed and Dangerous [1986 г, боевик, комедия, криминал, BDRip]
Writing library : XviD 1.2.1 (UTC 2008-12-04)
Default : Yes
Forced : No
Audio #1
ID : 2
Format : AC-3
Format/Info : Audio Coding 3
Mode extension : CM (complete main)
Format settings, Endianness : Big
Codec ID : A_AC3
Duration : 1h 27mn
Bit rate mode : Constant
Bit rate : 192 Kbps
Channel(s) : 2 channels
Channel positions : Front: L R
Sampling rate : 48.0 KHz
Bit depth : 16 bits
Compression mode : Lossy
Stream size : 120 MiB (7%)
Title : AVO. Гаврилов
Language : Russian
Default : Yes
Forced : No
Audio #2
ID : 3
Format : AC-3
Format/Info : Audio Coding 3
Mode extension : CM (complete main)
Format settings, Endianness : Big
Codec ID : A_AC3
Duration : 1h 27mn
Bit rate mode : Constant
Bit rate : 192 Kbps
Channel(s) : 2 channels
Channel positions : Front: L R
Sampling rate : 48.0 KHz
Bit depth : 16 bits
Compression mode : Lossy
Stream size : 120 MiB (7%)
Title : AVO. Марченко
Language : Russian
Default : No
Forced : No
Audio #3
ID : 4
Format : AC-3
Format/Info : Audio Coding 3
Mode extension : CM (complete main)
Format settings, Endianness : Big
Codec ID : A_AC3
Duration : 1h 27mn
Bit rate mode : Constant
Bit rate : 192 Kbps
Channel(s) : 2 channels
Channel positions : Front: L R
Sampling rate : 48.0 KHz
Bit depth : 16 bits
Compression mode : Lossy
Stream size : 120 MiB (7%)
Title : MVO. Первый канал
Language : Russian
Default : No
Forced : No
Audio #4
ID : 5
Format : AC-3
Format/Info : Audio Coding 3
Mode extension : CM (complete main)
Format settings, Endianness : Big
Codec ID : A_AC3
Duration : 1h 27mn
Bit rate mode : Constant
Bit rate : 192 Kbps
Channel(s) : 2 channels
Channel positions : Front: L R
Sampling rate : 48.0 KHz
Bit depth : 16 bits
Compression mode : Lossy
Stream size : 120 MiB (7%)
Title : MVO. СТС
Language : Russian
Default : No
Forced : No
Audio #5
ID : 6
Format : AC-3
Format/Info : Audio Coding 3
Format profile : Dolby Digital
Mode extension : CM (complete main)
Format settings, Endianness : Big
Codec ID : A_AC3
Duration : 1h 27mn
Bit rate mode : Constant
Bit rate : 192 Kbps
Channel(s) : 2 channels
Channel positions : Front: L R
Sampling rate : 48.0 KHz
Bit depth : 16 bits
Compression mode : Lossy
Stream size : 120 MiB (7%)
Title : Original
Language : English
Default : No
Forced : No
Text
ID : 7
Format : UTF-8
Codec ID : S_TEXT/UTF8
Codec ID/Info : UTF-8 Plain Text
Title : Английские
Language : English
Default : No
Forced : No
Скриншоты:


Время раздачи: С 10:00 до 17:00 (мск)

[Цитировать]



Показать сообщения:    

Текущее время: 04-Дек 06:51

Часовой пояс: UTC + 3


Вы не можете начинать темы
Вы не можете отвечать на сообщения
Вы не можете редактировать свои сообщения
Вы не можете удалять свои сообщения
Вы не можете голосовать в опросах
Вы не можете прикреплять файлы к сообщениям
Вы не можете скачивать файлы

!ВНИМАНИЕ!
Сайт не предоставляет электронные версии произведений, а занимается лишь коллекционированием и каталогизацией ссылок, присылаемых и публикуемых на форуме нашими читателями. Если вы являетесь правообладателем какого-либо представленного материала и не желаете, чтобы ссылка на него находилась в нашем каталоге, свяжитесь с нами, и мы незамедлительно удалим ее. Файлы для обмена на трекере предоставлены пользователями сайта, и администрация не несет ответственности за их содержание. Просьба не заливать файлы, защищенные авторскими правами, а также файлы нелегального содержания!