[ Сегодня идет свободное скачивание без начисления Download ]


Статистика раздачи
Нет
 
   
 
Top  
 
 
-Милашка в розовом / Pretty in Pink (1986) WEB-DL- Русское название: Милашка в розовом
Оригинальное название: Pretty in Pink
Год выпуска: 1986
Страна: США
Слоган: «He's good. She's good. He's just Duckie.»
Жанр: Драма, мелодрама, комедия--Режиссер: Ховард Дойч
Актеры: Молли Рингуолд (Andie Walsh), Гарри Дин Стэнтон (Jack Walsh), Джон Крайер (Duckie), Энни Поттс (Iona), Джеймс Спэйдер (Steff), Эндрю МакКарти (Blane McDonnagh), Джим Хейни (Donnelly), Алекса Кенин (Jena Hoeman), Кейт Вернон (Benny Hanson), Эндрю Дайс Клэй (Bouncer at CATS), Эмили Лонгстрет (Kate), Маргарет Колин (English Teacher)-Описание фильма: Она - девушка из бедного квартала. Он - парень из хорошей семьи, который мечтает, чтобы она составила ему пару на выпускном балу. Но их романтичному миру противостоит суровая реальность.- -Продолжительность: 01:36:44
Перевод: Двухголосый закадровый, Авторский
Язык субтитров: Английские
Вид субтитров: Вшитые отключаемые-Качество видео: WEB-DL
Видеокодек: MPEG-4 AVC/H.264
Битрейт видео: ~5216 Кбит/с
Размер кадра: 1916x1080
Аудио 1: AC3; 192 Kbps; CBR; 2 ch - Двухголосый (SDI Media )
Аудио 2: AC3; 192 Kbps; CBR; 2 ch - Михалёв
Аудио 3: AC3; 384 Kbps; CBR; 6 ch - Английский-

Mediainfo

General
Unique ID : 187809327526385794317236509148725423881 (0x8D4AC2C1F15000D2891AEC01A7FCAF09)
Complete name : G:\Pretty.In.Pink.1986.1080p.WEB-DL.mkv
Format : Matroska
Format version : Version 4 / Version 2
File size : 4.12 GiB
Duration : 1h 36mn
Overall bit rate : 6 105 Kbps
Encoded date : UTC 2010-02-22 21:41:31
Writing application : mkvmerge v5.9.0 ('On The Loose') built on Dec 9 2012 15:37:01
Writing library : libebml v1.3.0 + libmatroska v1.4.0
Video
ID : 1
Format : AVC
Format/Info : Advanced Video Codec
Format profile : High@L4.0
Format settings, CABAC : Yes
Format settings, ReFrames : 4 frames
Format settings, GOP : N=2
Muxing mode : Header stripping
Codec ID : V_MPEG4/ISO/AVC
Duration : 1h 36mn
Bit rate : 5 216 Kbps
Width : 1 916 pixels
Height : 1 080 pixels
Display aspect ratio : 16:9
Frame rate : 23.976 fps
Color space : YUV
Chroma subsampling : 4:2:0
Bit depth : 8 bits
Scan type : Progressive
Bits/(Pixel*Frame) : 0.105
Stream size : 3.52 GiB (85%)
Language : English
Default : Yes
Forced : No
Color primaries : BT.709-5, BT.1361, IEC 61966-2-4, SMPTE RP177
Transfer characteristics : BT.709-5, BT.1361
Matrix coefficients : BT.709-5, BT.1361, IEC 61966-2-4 709, SMPTE RP177
Audio #1
ID : 2
Format : AC-3
Format/Info : Audio Coding 3
Mode extension : CM (complete main)
Format settings, Endianness : Big
Muxing mode : Header stripping
Codec ID : A_AC3
Duration : 1h 36mn
Bit rate mode : Constant
Bit rate : 192 Kbps
Channel(s) : 2 channels
Channel positions : Front: L R
Sampling rate : 48.0 KHz
Bit depth : 16 bits
Compression mode : Lossy
Stream size : 133 MiB (3%)
Title : AC3 Mnog.
Language : Russian
Default : Yes
Forced : No
Audio #2
ID : 3
Format : AC-3
Format/Info : Audio Coding 3
Mode extension : CM (complete main)
Format settings, Endianness : Big
Muxing mode : Header stripping
Codec ID : A_AC3
Duration : 1h 36mn
Bit rate mode : Constant
Bit rate : 192 Kbps
Channel(s) : 2 channels
Channel positions : Front: L R
Sampling rate : 48.0 KHz
Bit depth : 16 bits
Compression mode : Lossy
Stream size : 133 MiB (3%)
Title : AC3 Mihalev
Language : Russian
Default : No
Forced : No
Audio #3
ID : 4
Format : AC-3
Format/Info : Audio Coding 3
Mode extension : CM (complete main)
Format settings, Endianness : Big
Muxing mode : Header stripping
Codec ID : A_AC3
Duration : 1h 36mn
Bit rate mode : Constant
Bit rate : 384 Kbps
Channel(s) : 6 channels
Channel positions : Front: L C R, Side: L R, LFE
Sampling rate : 48.0 KHz
Bit depth : 16 bits
Compression mode : Lossy
Stream size : 266 MiB (6%)
Title : AC3 5.1
Language : English
Default : No
Forced : No
Text
ID : 5
Format : UTF-8
Codec ID : S_TEXT/UTF8
Codec ID/Info : UTF-8 Plain Text
Title : SRT
Language : English
Default : No
Forced : No
Menu
00:00:00.000 : en:Volcanic Ensemble
00:06:31.000 : en:A Stupid Tradition
00:16:01.000 : en:Declaration of Love
00:19:41.000 : en:The Big Question
00:26:47.000 : en:An Incredible Person
00:31:34.000 : en:Social Politics
00:36:04.000 : en:Wishful Makeuping
00:43:20.000 : en:A Mistake
00:53:01.000 : en:Don't Take Me Home
00:58:17.000 : en:Reminiscing
01:03:31.000 : en:The Choice
01:10:22.000 : en:Confrontations
01:19:51.000 : en:Making Changes
01:26:47.000 : en:The Big Night
01:33:23.000 : en:End Credits
-Скриншоты:
-Время раздачи: С 09:00 до 24:00

[Цитировать]



Показать сообщения:    

Текущее время: 19-Янв 18:08

Часовой пояс: UTC + 3


Вы не можете начинать темы
Вы не можете отвечать на сообщения
Вы не можете редактировать свои сообщения
Вы не можете удалять свои сообщения
Вы не можете голосовать в опросах
Вы не можете прикреплять файлы к сообщениям
Вы не можете скачивать файлы

!ВНИМАНИЕ!
Сайт не предоставляет электронные версии произведений, а занимается лишь коллекционированием и каталогизацией ссылок, присылаемых и публикуемых на форуме нашими читателями. Если вы являетесь правообладателем какого-либо представленного материала и не желаете, чтобы ссылка на него находилась в нашем каталоге, свяжитесь с нами, и мы незамедлительно удалим ее. Файлы для обмена на трекере предоставлены пользователями сайта, и администрация не несет ответственности за их содержание. Просьба не заливать файлы, защищенные авторскими правами, а также файлы нелегального содержания!