[ Сегодня идет свободное скачивание без начисления Download ]


Статистика раздачи
Нет
 
   
 
Top  
 
 
Черный Дрозд / Deadfall
«От прошлого не скрыться»
Год выпуска: 2012
Страна: США
Производство: 2929 Productions, Madhouse Entertainment, Magnolia Pictures, Mutual Film Corporation, StudioCanal
Жанр: Триллер, драма, криминал
Режиссёр: Штефан Руцовицки
В ролях: Эрик Бана, Оливия Уайлд, Чарли Ханнэм, Сисси Спейсек, Крис Кристофферсон, Джейсон Кавалье, Кевин Десфоссес, Ален Голем, Эллисон Грэхэм, Патрик Кертон
Перевод: Дубляж, Оригинал (английский)
Субтитры: Русские, Английские
Описание: Эддисон и Лиза в бегах после неудачного ограбления казино. Бывший боксер Джей направляется домой, чтобы провести День Благодарения в кругу семьи. Судьба неумолимо сводит этих людей, чтобы они встретили Зло и вступили в схватку с ним.

Качество: BDRip-AVC |Сравнение скриншотов с этой раздачей| Сэмпл
Продолжительность: 01:34:38 час.
Формат: MKV
Видео кодек: x264
Аудио кодек: AC3
Видео: 1026 x 436 (2.35:1), 23.976 fps, x264 ~2 405 kbps avg, 0.224 bit/pixel
Аудио#1: 48 kHz, AC3 Dolby Digital, 3/2 (L,C,R,l,r) + LFE ch, ~448 kbps - (Дубляж)
Аудио#2: 48 kHz, AC3 Dolby Digital, 3/2 (L,C,R,l,r) + LFE ch, ~448 kbps - (Оригинал)
Дата премьеры (мир): 22 апреля 2012
Дата премьеры (РФ): 13 декабря 2012, «Top Film Distribution»

MediaInfo| x264

x264 info

x264 [info]: frame I:979 Avg QP:16.12 size: 69320
x264 [info]: frame P:28437 Avg QP:19.52 size: 22934
x264 [info]: frame B:106727 Avg QP:20.48 size: 9242
x264 [info]: consecutive B-frames: 2.3% 2.4% 9.6% 13.2% 14.1% 40.4% 5.5% 2.6% 2.0% 1.7% 1.5% 2.7% 2.0%
x264 [info]: mb I I16..4: 7.4% 74.1% 18.5%
x264 [info]: mb P I16..4: 1.1% 11.3% 2.1% P16..4: 27.6% 32.6% 12.9% 2.0% 0.2% skip:10.2%
x264 [info]: mb B I16..4: 0.2% 1.6% 0.4% B16..8: 36.1% 21.4% 4.0% direct: 5.2% skip:31.2% L0:47.0% L1:43.5% BI: 9.5%
x264 [info]: 8x8 transform intra:76.2% inter:61.6%
x264 [info]: direct mvs spatial:96.3% temporal:3.7%
x264 [info]: coded y,uvDC,uvAC intra: 84.7% 79.8% 55.1% inter: 29.8% 21.5% 9.4%
x264 [info]: i16 v,h,dc,p: 43% 24% 5% 28%
x264 [info]: i8 v,h,dc,ddl,ddr,vr,hd,vl,hu: 11% 9% 7% 10% 13% 13% 13% 11% 13%
x264 [info]: i4 v,h,dc,ddl,ddr,vr,hd,vl,hu: 27% 14% 5% 6% 10% 10% 10% 8% 9%
x264 [info]: i8c dc,h,v,p: 36% 28% 20% 16%
x264 [info]: Weighted P-Frames: Y:3.4% UV:1.2%
x264 [info]: ref P L0: 43.2% 9.8% 17.4% 6.8% 5.7% 4.0% 3.6% 2.0% 1.9% 1.5% 1.5% 1.2% 1.3% 0.2% 0.0%
x264 [info]: ref B L0: 63.1% 14.1% 7.5% 4.1% 2.9% 2.4% 1.9% 1.2% 1.0% 0.9% 0.5% 0.2%
x264 [info]: ref B L1: 90.1% 9.9%
x264 [info]: SSIM Mean Y:0.9793014 (16.841db)
x264 [info]: kb/s:2404.17
General
Unique ID : 217792535188129094638241716675700827085 (0xA3D951075799757F896C02F05A67A3CD)
Complete name : I:\Chernyi.Drozd.2012.DUAL.BDRip-AVC.AC3.-HQ-ViDEO.mkv
Format : Matroska
Format version : Version 4 / Version 2
File size : 2.18 GiB
Duration : 1h 34mn
Overall bit rate : 3 302 Kbps
Movie name : Deadfall (2012) - HQ-ViDEO
Encoded date : UTC 2013-02-18 04:52:53
Writing application : mkvmerge v6.0.0 ('Coming Up For Air') built on Jan 20 2013 09:52:00
Writing library : libebml v1.3.0 + libmatroska v1.4.0
Video
ID : 1
Format : AVC
Format/Info : Advanced Video Codec
Format profile : High@L4.1
Format settings, CABAC : Yes
Format settings, ReFrames : 13 frames
Codec ID : V_MPEG4/ISO/AVC
Duration : 1h 34mn
Bit rate : 2 405 Kbps
Width : 1 026 pixels
Height : 436 pixels
Display aspect ratio : 2.35:1
Frame rate mode : Constant
Frame rate : 23.976 fps
Color space : YUV
Chroma subsampling : 4:2:0
Bit depth : 8 bits
Scan type : Progressive
Bits/(Pixel*Frame) : 0.224
Stream size : 1.55 GiB (71%)
Title : Vaippp @ 2400 Kbps
Writing library : x264 core 129 r2245 bc13772
Encoding settings : cabac=1 / ref=13 / deblock=1:-2:-1 / analyse=0x3:0x133 / me=umh / subme=11 / psy=1 / psy_rd=1.10:0.01 / mixed_ref=1 / me_range=40 / chroma_me=1 / trellis=2 / 8x8dct=1 / cqm=0 / deadzone=21,11 / fast_pskip=0 / chroma_qp_offset=-3 / threads=12 / lookahead_threads=2 / sliced_threads=0 / nr=0 / decimate=0 / interlaced=0 / bluray_compat=0 / constrained_intra=0 / bframes=12 / b_pyramid=2 / b_adapt=2 / b_bias=0 / direct=3 / weightb=1 / open_gop=0 / weightp=2 / keyint=240 / keyint_min=22 / scenecut=40 / intra_refresh=0 / rc_lookahead=60 / rc=2pass / mbtree=0 / bitrate=2405 / ratetol=1.0 / qcomp=0.70 / qpmin=0 / qpmax=69 / qpstep=4 / cplxblur=20.0 / qblur=0.5 / vbv_maxrate=50000 / vbv_bufsize=50000 / nal_hrd=none / ip_ratio=1.40 / pb_ratio=1.30 / aq=1:0.85 / zones=127405,136142,q=35
Language : English
Default : Yes
Forced : No
Color primaries : BT.709
Transfer characteristics : BT.709
Matrix coefficients : BT.709
Audio #1
ID : 2
Format : AC-3
Format/Info : Audio Coding 3
Mode extension : CM (complete main)
Format settings, Endianness : Big
Codec ID : A_AC3
Duration : 1h 34mn
Bit rate mode : Constant
Bit rate : 448 Kbps
Channel(s) : 6 channels
Channel positions : Front: L C R, Side: L R, LFE
Sampling rate : 48.0 KHz
Bit depth : 16 bits
Compression mode : Lossy
Stream size : 303 MiB (14%)
Title : AC3 DD 5.1 @ 448 Kbps - DUB (R5)
Language : Russian
Default : Yes
Forced : Yes
Audio #2
ID : 3
Format : AC-3
Format/Info : Audio Coding 3
Mode extension : CM (complete main)
Format settings, Endianness : Big
Codec ID : A_AC3
Duration : 1h 34mn
Bit rate mode : Constant
Bit rate : 448 Kbps
Channel(s) : 6 channels
Channel positions : Front: L C R, Side: L R, LFE
Sampling rate : 48.0 KHz
Bit depth : 16 bits
Compression mode : Lossy
Stream size : 303 MiB (14%)
Title : AC3 DD 5.1 @ 448 Kbps - Original Blu-Ray
Language : English
Default : No
Forced : No
Text #1
ID : 4
Format : UTF-8
Codec ID : S_TEXT/UTF8
Codec ID/Info : UTF-8 Plain Text
Language : Russian
Default : No
Forced : No
Text #2
ID : 5
Format : UTF-8
Codec ID : S_TEXT/UTF8
Codec ID/Info : UTF-8 Plain Text
Language : English
Default : No
Forced : No
Menu
00:00:00.000 : en:Chapter 01
00:08:18.580 : en:Chapter 02
00:18:18.931 : en:Chapter 03
00:28:45.473 : en:Chapter 04
00:35:57.697 : en:Chapter 05
00:44:25.663 : en:Chapter 06
00:53:32.792 : en:Chapter 07
01:02:49.891 : en:Chapter 08
01:09:32.167 : en:Chapter 09
01:17:17.966 : en:Chapter 10
01:22:01.832 : en:Chapter 11
01:28:27.719 : en:Chapter 12

Скриншоты

[Цитировать]

Топик был перенесен из форума Новинки кинопроката в форум Триллер
Henkok



Показать сообщения:    

Текущее время: 10-Дек 11:51

Часовой пояс: UTC + 3


Вы не можете начинать темы
Вы не можете отвечать на сообщения
Вы не можете редактировать свои сообщения
Вы не можете удалять свои сообщения
Вы не можете голосовать в опросах
Вы не можете прикреплять файлы к сообщениям
Вы не можете скачивать файлы

!ВНИМАНИЕ!
Сайт не предоставляет электронные версии произведений, а занимается лишь коллекционированием и каталогизацией ссылок, присылаемых и публикуемых на форуме нашими читателями. Если вы являетесь правообладателем какого-либо представленного материала и не желаете, чтобы ссылка на него находилась в нашем каталоге, свяжитесь с нами, и мы незамедлительно удалим ее. Файлы для обмена на трекере предоставлены пользователями сайта, и администрация не несет ответственности за их содержание. Просьба не заливать файлы, защищенные авторскими правами, а также файлы нелегального содержания!