[ Сегодня идет свободное скачивание без начисления Download ]


Статистика раздачи
Нет
 
   
 
Top  
 
 
-Неприятности с Гарри / The Trouble with Harry - Русское название: Неприятности с Гарри

Оригинальное название: The Trouble with Harry
Год выпуска: 1955
Жанр: Триллер, Комедия, Детектив
Описание фильма:
Комедия о беспокойном… трупе, который создает множество умопомрачительных проблем для мирных соседей в Новой Англии. Да, человека убили, соседям это не нравится. Хичкоку удается сделать это не свойственной для него, блистательной комедией.
Режиссер: Альфред Хичкок
Актеры: Эдмунд Гвенн, Джон Форсайт, Милдред Нэтвик, Милдред Даннок, Джерри Мэзерс, Ройал Дэно, Паркер Феннелли, Бэрри Мэколлам, Дуайт Марфилд, Ширли МакЛейн
Продолжительность: 01:39:22
Перевод: Многоголосый закадровый
Язык субтитров: Русский
Вид субтитров: Вшитые (Отключаемые)

Дата мировой премьеры: 27 сентября 1955
Видео кодек: MPEG-4 AVC/H.264
Битрейт видео: ~5788 Кбит/сек
Размер кадра: 1280 x 720
Качество видео: HDTVRip 720p
Видео: 1280 x 720 (16:9), 23,976 fps, ~5788 kbps, 0.262 bit/ pixel
Аудио №1: Russian: 48 kHz, AC3 5.1 @ 384 kbps |Многоголосый закадровый|
Аудио №2: English: 48 kHz, AC3 5.1 @ 384 kbps |Оригинал|

MediaInfo

Общее
Уникальный идентификатор : 216431972204506078838386157660982383406 (0xA2D34818313732A38099F9B2A23E932E)
Полное имя : F:\01-HD\Черная комедия\Неприятности с Гарри (1955)\Неприятности с Гарри (The Trouble with Harry).1955.HDTVRip.720p.mkv
Формат : Matroska
Версия формата : Version 2
Размер файла : 4,64 Гбайт
Продолжительность : 1 ч. 39 м.
Общий поток : 6689 Кбит/сек
Дата кодирования : UTC 2013-01-07 04:01:45
Программа кодирования : mkvmerge v3.4.0 ('Rapunzel') сборка от May 15 2010 09:38:20
Библиотека кодирования : libebml v0.8.0 + libmatroska v0.9.0
Видео
Идентификатор : 1
Формат : AVC
Формат/Информация : Advanced Video Codec
Профиль формата : High@L4.1
Параметр CABAC формата : Да
Параметр ReFrames формата : 8 кадров
Идентификатор кодека : V_MPEG4/ISO/AVC
Продолжительность : 1 ч. 39 м.
Битрейт : 5788 Кбит/сек
Ширина : 1280 пикселей
Высота : 720 пикселей
Соотношение сторон : 16:9
Режим частоты кадров : Постоянный
Частота кадров : 23,976 кадра/сек
Цветовое пространство : YUV
Субдискретизация насыщенности : 4:2:0
Битовая глубина : 8 бит
Тип развёртки : Прогрессивная
Бит/(Пиксели*Кадры) : 0.262
Размер потока : 4,02 Гбайт (87%)
Заголовок : The Trouble with Harry (1955) HDTV 720p
Язык : English
Default : Нет
Forced : Нет
Аудио #1
Идентификатор : 2
Формат : AC-3
Формат/Информация : Audio Coding 3
Расширение режима : CM (complete main)
Параметр Endianness формата : Big
Идентификатор кодека : A_AC3
Продолжительность : 1 ч. 39 м.
Вид битрейта : Постоянный
Битрейт : 384 Кбит/сек
Каналы : 6 каналов
Расположение каналов : Front: L C R, Side: L R, LFE
Частота : 48,0 КГц
Битовая глубина : 16 бит
Метод сжатия : С потерями
Размер потока : 273 Мбайт (6%)
Заголовок : AC3 5.1 @ 384 kbps
Язык : Russian
Default : Нет
Forced : Нет
Аудио #2
Идентификатор : 3
Формат : AC-3
Формат/Информация : Audio Coding 3
Расширение режима : CM (complete main)
Параметр Endianness формата : Big
Идентификатор кодека : A_AC3
Продолжительность : 1 ч. 39 м.
Вид битрейта : Постоянный
Битрейт : 384 Кбит/сек
Каналы : 6 каналов
Расположение каналов : Front: L C R, Side: L R, LFE
Частота : 48,0 КГц
Битовая глубина : 16 бит
Метод сжатия : С потерями
Размер потока : 273 Мбайт (6%)
Заголовок : AC3 5.1 @ 384 kbps
Язык : English
Default : Нет
Forced : Нет
Текст
Идентификатор : 4
Формат : UTF-8
Идентификатор кодека : S_TEXT/UTF8
Идентификатор кодека/Информация : UTF-8 Plain Text
Язык : Russian
Default : Нет
Forced : Нет
Скриншоты:



Время раздачи: 24/7

[Цитировать]



Показать сообщения:    

Текущее время: 09-Дек 10:51

Часовой пояс: UTC + 3


Вы не можете начинать темы
Вы не можете отвечать на сообщения
Вы не можете редактировать свои сообщения
Вы не можете удалять свои сообщения
Вы не можете голосовать в опросах
Вы не можете прикреплять файлы к сообщениям
Вы не можете скачивать файлы

!ВНИМАНИЕ!
Сайт не предоставляет электронные версии произведений, а занимается лишь коллекционированием и каталогизацией ссылок, присылаемых и публикуемых на форуме нашими читателями. Если вы являетесь правообладателем какого-либо представленного материала и не желаете, чтобы ссылка на него находилась в нашем каталоге, свяжитесь с нами, и мы незамедлительно удалим ее. Файлы для обмена на трекере предоставлены пользователями сайта, и администрация не несет ответственности за их содержание. Просьба не заливать файлы, защищенные авторскими правами, а также файлы нелегального содержания!