[ Сегодня идет свободное скачивание без начисления Download ]


Статистика раздачи
Нет
 
   
 
Top  
 
 
• Марко Макако / Marco Macaco •«Даёшь бананы!»
? Год выпуска: 2012
? Страна: Дания
? Производство: Nice Ninja Productions
? Жанр: мультфильм, комедия, семейный
? Режиссёр: Жан Рабек
? В ролях: Токе Бьярке, Милле Лефельдт, Руне Толсгаард, Джесс Ингерслев
? Перевод: Дубляж
? Субтитры: Отсутствуют
? Описание: Марко Макако работает пляжным охранником на тропическом острове. Он верой и правдой служит своему боссу, мечтая лишь об одном — раскрыть серьезное преступление. Марко проводит собственные расследования по любому поводу и поднимает шумиху по пустякам. Однако вскоре ему по-настоящему повезет: завоевывая расположение красавицы Лулу, Марко раскроет коварный заговор богача Карло, вознамерившегося стать боссом. ? Качество: BDRip | исх. Blu-Ray.IRONCLUB
? Продолжительность: 01:15:47 час.
? Формат: AVI
? Видео кодек: XviD
? Аудио кодек: AC3
? Видео: 720x384 (1.875), 24 fps, XviD build 50 ~2 125 kbps avg, 0.320 bit/pixel
? Аудио: 48 kHz, AC3 Dolby Digital, 3/2 (L,C,R,l,r) + LFE ch, ~448 kbps
? Дата премьеры (мир): 11 октября 2012
? Дата премьеры (РФ): 27 декабря 2012, «Люксор»

MediaInfo:

General
       Complete name : C:\Marco.Macaco.2012.D.BDRip.avi
       Format : AVI
       Format/Info : Audio Video Interleave
       File size : 1.37 GiB
       Duration : 1h 15mn
       Overall bit rate : 2 582 Kbps
       Movie name : Marco.Macaco.2012.D.BDRip.
       Director : IRONCLUB
       Genre : Animation | Comedy | Family
       Writing application : VirtualDubMod 1.5.10.3 | www.virtualdub-fr.org || (build 2550/release)
       Original source form/Name : Cartoon
    Video #0
       ID : 0
       Format : MPEG-4 Visual
       Format profile : Advanced [email protected]
       Format settings, BVOP : 1
       Format settings, QPel : No
       Format settings, GMC : No warppoints
       Format settings, Matrix : Custom
       Codec ID : XVID
       Codec ID/Hint : XviD
       Duration : 1h 15mn
       Bit rate : 2 125 Kbps
       Width : 720 pixels
       Height : 384 pixels
       Display aspect ratio : 1.875
       Frame rate : 24.000 fps
       Color space : YUV
       Chroma subsampling : 4:2:0
       Bit depth : 8 bits
       Scan type : Progressive
       Compression mode : Lossy
       Bits/(Pixel*Frame) : 0.320
       Stream size : 1.12 GiB (82%)
       Writing library : XviD 1.2.1 (UTC 2008-12-04)
    Audio #1
       ID : 1
       Format : AC-3
       Format/Info : Audio Coding 3
       Mode extension : CM (complete main)
       Codec ID : 2000
       Duration : 1h 15mn
       Bit rate mode : Constant
       Bit rate : 448 Kbps
       Channel(s) : 6 channels
       Channel positions : Front: L C R, Side: L R, LFE
       Sampling rate : 48.0 KHz
       Bit depth : 16 bits
       Compression mode : Lossy
       Stream size : 243 MiB (17%)
       Alignment : Split accross interleaves
       Interleave, duration : 42 ms (1.00 video frame)
       Interleave, preload duration : 500 ms

Скриншоты

[Цитировать]

Топик был перенесен из форума Новинки кинопроката в форум Зарубежные мультфильмы
Henkok



Показать сообщения:    

Текущее время: 05-Дек 11:33

Часовой пояс: UTC + 3


Вы не можете начинать темы
Вы не можете отвечать на сообщения
Вы не можете редактировать свои сообщения
Вы не можете удалять свои сообщения
Вы не можете голосовать в опросах
Вы не можете прикреплять файлы к сообщениям
Вы не можете скачивать файлы

!ВНИМАНИЕ!
Сайт не предоставляет электронные версии произведений, а занимается лишь коллекционированием и каталогизацией ссылок, присылаемых и публикуемых на форуме нашими читателями. Если вы являетесь правообладателем какого-либо представленного материала и не желаете, чтобы ссылка на него находилась в нашем каталоге, свяжитесь с нами, и мы незамедлительно удалим ее. Файлы для обмена на трекере предоставлены пользователями сайта, и администрация не несет ответственности за их содержание. Просьба не заливать файлы, защищенные авторскими правами, а также файлы нелегального содержания!