[ Сегодня идет свободное скачивание без начисления Download ]


Статистика раздачи
Нет
 
   
 
Top  
 
 
-Белые люди не умеют прыгать / White Men Can't Jump (1992) [720p] BDRip
«It ain't easy being this good.»
- Русское название: Белые люди не умеют прыгать
Оригинальное название: White Men Can't Jump
Год выпуска: 1992
Выпущено: США, 20th Century Fox Film Corporation
Жанр: Драма, Комедия-Описание фильма:
Действие фильма переносит нас на раскаленный асфальт баскетбольных площадок Лос-Анджелеса. Идет игра — игра на деньги. А там где деньги всегда найдется место парочке жуликов, готовых обмануть доверчивого лоха. Билли, шулер от баскетбола, беззастенчиво пользуется общепринятым мнением, что белый не может играть в баскетбол, не может прыгать. Все складывается отлично, до тех пор пока не приходит время расплачиваться с долгами, наделанными еще в университете. Нужно срочно собрать кругленькую сумму, а в одиночку это проблематично. К этой проблеме присоединяется еще одна, Сидней — чернокожий мошенник. Звезда уличного баскетбола. Похититель женских сердец. Между двумя игроками завязывается нешуточная борьба за звание лучшего баскетболиста, ловеласа, самого удачливого кидалы. Борьба идет до тех пор, пока они не понимают, что в паре можно заработать гораздо больше денег, чем по одиночке.-Режиссер: Рон Шелтон
Актеры: Уэсли Снайпс, Вуди Харрельсон, Рози Перес, Тайра Феррелл, Силк Козарт, Кадим Хардисон, Эрнест Харден мл., Джон Маршалл Джонс, Маркус Джонсон, Дэвид Роберсон, Кевин Бентон, Найджел Мигель, Дуэйн Мартин, Билл Хендерсон, Сонни Кравер, Джон Хендрикс, Элой Касадос, Фрэнк Росси, Фриман Уильямс, Луис Прайс, Алекс Требек, Регги Леон, Сара Ставру, Рейнальдо Рей, Ланей Чэпман, Ирен Неттлз, Торри Уайтхед, Лиза Макдауэлл, Дэвид Максвелл, Дион Б. Винс, Билл Каплан, Ричард Джеймс Бэйкер, Эми Голден, Джанет Срубар, Зандра Хилл, Фред П. Грегори-Продолжительность: 01:56:50
Перевод: Многоголосый закадровый, одноголосый закадровый
Язык субтитров: Русские, английские
Вид субтитров: Вшитые-
Релиз от: -Дата мировой премьеры: 27 марта 1992
Дата выхода DVD релиза: 12 марта 2009, «Двадцатый Век Фокс СНГ»-Видеокодек: MPEG-4 AVC/H.264
Битрейт видео: ~8546 Кбит/с
Размер кадра: 1280x694
Качество видео: BDRip [720p]
Аудио:
1. Русский: 48 kHz, AC3, 3/2 (L,C,R,l,r) + LFE ch, ~384.00 kbps avg |Многоголосый закадровый, R5|
2. Русский: 48 kHz, AC3, 2/0 (L,R) ch, ~192.00 kbps avg |Одноголосый закадровый, В. Дохалов|
3. Украинский: 48 kHz, AC3, 2/0 (L,R) ch, ~192.00 kbps avg |Многоголосый закадровый|
4. Русский: 48 kHz, DTS, 3/2 (L,C,R,l,r) + LFE ch, ~1510.00 kbps avg |Одноголосый закадровый, Ю. Живов|
5. Английский: 48 kHz, DTS, 3/2 (L,C,R,l,r) + LFE ch, ~1510.00 kbps avg-

MediaInfo

General
Unique ID : 213378639201589362043576501504669435700 (0xA0873B279B362C2DBABA5E61A758C734)
Complete name : D:\Загрузки\Раздачи\White.Men.Can't.Jump.1992.720p.BluRay.3xRus.Ukr.Eng.HDCLUB.mkv
Format : Matroska
Format version : Version 2
File size : 10.1 GiB
Duration : 1h 56mn
Overall bit rate : 12.3 Mbps
Movie name : White Men Can't Jump (1992) - Release for HDCLUB
Encoded date : UTC 2013-02-16 13:20:41
Writing application : mkvmerge v3.4.0 ('Rapunzel') сборка от May 15 2010 09:38:20
Writing library : libebml v0.8.0 + libmatroska v0.9.0
Video
ID : 1
Format : AVC
Format/Info : Advanced Video Codec
Format profile : High@L4.1
Format settings, CABAC : Yes
Format settings, ReFrames : 9 frames
Codec ID : V_MPEG4/ISO/AVC
Duration : 1h 56mn
Bit rate : 8 546 Kbps
Width : 1 280 pixels
Height : 694 pixels
Display aspect ratio : 16:9
Frame rate : 23.976 fps
Color space : YUV
Chroma subsampling : 4:2:0
Bit depth : 8 bits
Scan type : Progressive
Bits/(Pixel*Frame) : 0.401
Stream size : 6.77 GiB (67%)
Title : Release for HDCLUB
Writing library : x264 core 120 r2164+656 2ff844c
Encoding settings : cabac=1 / ref=9 / deblock=1:-3:-3 / analyse=0x3:0x133 / me=umh / subme=10 / psy=1 / fade_compensate=0.00 / psy_rd=1.00:0.00 / mixed_ref=1 / me_range=32 / chroma_me=1 / trellis=2 / 8x8dct=1 / cqm=0 / deadzone=21,11 / fast_pskip=0 / chroma_qp_offset=-2 / threads=3 / sliced_threads=0 / nr=0 / decimate=0 / interlaced=0 / bluray_compat=0 / constrained_intra=0 / fgo=0 / bframes=7 / b_pyramid=2 / b_adapt=2 / b_bias=0 / direct=3 / weightb=1 / open_gop=0 / weightp=2 / keyint=250 / keyint_min=23 / scenecut=40 / intra_refresh=0 / rc_lookahead=60 / rc=2pass / mbtree=1 / bitrate=8546 / ratetol=1.0 / qcomp=0.70 / qpmin=0 / qpmax=69 / qpstep=4 / cplxblur=20.0 / qblur=0.5 / ip_ratio=1.40 / aq=3:0.85
Language : English
Default : No
Forced : No
Audio #1
ID : 2
Format : AC-3
Format/Info : Audio Coding 3
Mode extension : CM (complete main)
Codec ID : A_AC3
Duration : 1h 56mn
Bit rate mode : Constant
Bit rate : 384 Kbps
Channel(s) : 6 channels
Channel positions : Front: L C R, Side: L R, LFE
Sampling rate : 48.0 KHz
Bit depth : 16 bits
Compression mode : Lossy
Stream size : 321 MiB (3%)
Title : Многоголосый закадровый, R5
Language : Russian
Default : Yes
Forced : No
Audio #2
ID : 3
Format : AC-3
Format/Info : Audio Coding 3
Mode extension : CM (complete main)
Codec ID : A_AC3
Duration : 1h 56mn
Bit rate mode : Constant
Bit rate : 192 Kbps
Channel(s) : 2 channels
Channel positions : Front: L R
Sampling rate : 48.0 KHz
Bit depth : 16 bits
Compression mode : Lossy
Stream size : 160 MiB (2%)
Title : Одноголосый закадровый, В. Дохалов
Language : Russian
Default : No
Forced : No
Audio #3
ID : 4
Format : AC-3
Format/Info : Audio Coding 3
Mode extension : CM (complete main)
Codec ID : A_AC3
Duration : 1h 56mn
Bit rate mode : Constant
Bit rate : 192 Kbps
Channel(s) : 2 channels
Channel positions : Front: L R
Sampling rate : 48.0 KHz
Bit depth : 16 bits
Compression mode : Lossy
Stream size : 160 MiB (2%)
Title : Многоголосый закадровый
Language : Russian
Default : No
Forced : No
Audio #4
ID : 5
Format : DTS
Format/Info : Digital Theater Systems
Codec ID : A_DTS
Duration : 1h 56mn
Bit rate mode : Constant
Bit rate : 1 510 Kbps
Channel(s) : 6 channels
Channel positions : Front: L C R, Side: L R, LFE
Sampling rate : 48.0 KHz
Bit depth : 24 bits
Compression mode : Lossy
Stream size : 1.23 GiB (12%)
Title : Одноголосый закадровый, Ю. Живов
Language : Russian
Default : No
Forced : No
Audio #5
ID : 6
Format : DTS
Format/Info : Digital Theater Systems
Codec ID : A_DTS
Duration : 1h 56mn
Bit rate mode : Constant
Bit rate : 1 510 Kbps
Channel(s) : 6 channels
Channel positions : Front: L C R, Side: L R, LFE
Sampling rate : 48.0 KHz
Bit depth : 24 bits
Compression mode : Lossy
Stream size : 1.23 GiB (12%)
Language : Russian
Default : No
Forced : No
Text #1
ID : 7
Format : UTF-8
Codec ID : S_TEXT/UTF8
Codec ID/Info : UTF-8 Plain Text
Language : Russian
Default : No
Forced : No
Text #2
ID : 8
Format : UTF-8
Codec ID : S_TEXT/UTF8
Codec ID/Info : UTF-8 Plain Text
Language : English
Default : No
Forced : No
Menu
00:00:00.000 : :00:00:00.000
00:04:34.816 : :00:04:34.816
00:09:00.123 : :00:09:00.123
00:19:00.681 : :00:19:00.681
00:24:25.464 : :00:24:25.464
00:31:06.865 : :00:31:06.865
00:36:15.006 : :00:36:15.006
00:43:21.224 : :00:43:21.224
00:50:48.212 : :00:50:48.212
00:58:04.189 : :00:58:04.189
01:04:55.266 : :01:04:55.266
01:10:32.562 : :01:10:32.562
01:14:12.156 : :01:14:12.156
01:23:14.072 : :01:23:14.072
01:28:26.676 : :01:28:26.676
01:33:12.212 : :01:33:12.212
01:36:36.082 : :01:36:36.082
01:42:31.270 : :01:42:31.270
01:47:32.738 : :01:47:32.738
01:52:41.964 : :01:52:41.964

Награды

Премия канала «MTV», 1993 год
Номинации (2):
Лучший экранный дуэт (Вуди Харрельсон, Уэсли Снайпс)
Лучший поцелуй (Вуди Харрельсон, Уэсли Снайпс)
-Скриншоты:

Время раздачи: С 07:00 до 22:00

[Цитировать]



Показать сообщения:    

Текущее время: 10-Дек 21:38

Часовой пояс: UTC + 3


Вы не можете начинать темы
Вы не можете отвечать на сообщения
Вы не можете редактировать свои сообщения
Вы не можете удалять свои сообщения
Вы не можете голосовать в опросах
Вы не можете прикреплять файлы к сообщениям
Вы не можете скачивать файлы

!ВНИМАНИЕ!
Сайт не предоставляет электронные версии произведений, а занимается лишь коллекционированием и каталогизацией ссылок, присылаемых и публикуемых на форуме нашими читателями. Если вы являетесь правообладателем какого-либо представленного материала и не желаете, чтобы ссылка на него находилась в нашем каталоге, свяжитесь с нами, и мы незамедлительно удалим ее. Файлы для обмена на трекере предоставлены пользователями сайта, и администрация не несет ответственности за их содержание. Просьба не заливать файлы, защищенные авторскими правами, а также файлы нелегального содержания!