[ Сегодня идет свободное скачивание без начисления Download ]


Статистика раздачи
Нет
 
   
 
Top  
 
 
• Конец света / Fin • Год выпуска: 2012
Страна: Испания
Производство: Mod Producciones, Apaches Entertainment, Antena 3 Films
Жанр: триллер
Режиссёр: Хорхе Торрегросса
В ролях: Микель Фернандез, Антонио Гарридо, Даниель Грао, Клара Лаго, Эудженио Мира, Бланка Ромеро, Кармен Руис, Андрес Веленкозо, Марибель Верду
Перевод: Профессиональный (многоголосый, закадровый)
Субтитры: Нет
Описание: Друзья собираются вместе провести выходные в горной хижине. Однако странное явление полностью меняет планы, оставляя их без связи с внешним миром. По дороге за помощью они отдаляются друг от друга, так как происходящее вокруг оказывает на них сильное влияние. Дата премьеры (мир): 8 сентября 2012
Дата премьеры (РФ): 20 декабря 2012, «Премиум Фильм»
Качество: BDRip-AVC | Сэмпл
Продолжительность: 01:32:50
Формат: MKV
Видео кодек: H.264
Аудио кодек: AC3
Видео: H.264, 1024x428 (2,40:1), 24,000 fps, 1788 Кbps, 0.170 bit/pixel
Аудио: 48 kHz, AC3 Dolby Digital, 3/2 (L,C,R,l,r) + LFE ch, ~448.00 kbps avg | RUS

"Mediainfo:"

General
       Format : Matroska
       File size : 1.45 GiB
       Duration : 1h 32mn
       Overall bit rate : 2 238 Kbps
       Movie name : Конец света / Fin (2012) BDRip-AVC rip by Rulya74
       Encoded date : UTC 2013-02-14 16:47:41
       Writing application : mkvmerge v6.0.0 ('Coming Up For Air') built on Jan 20 2013 09:52:00
       Writing library : libebml v1.3.0 + libmatroska v1.4.0
    Video #1
       ID : 1
       Format : AVC
       Format/Info : Advanced Video Codec
       Format profile : [email protected]
       Format settings, CABAC : Yes
       Format settings, ReFrames : 10 frames
       Codec ID : V_MPEG4/ISO/AVC
       Duration : 1h 32mn
       Bit rate : 1 788 Kbps
       Width : 1 024 pixels
       Height : 428 pixels
       Display aspect ratio : 2.35:1
       Frame rate : 24.000 fps
       Color space : YUV
       Chroma subsampling : 4:2:0
       Bit depth : 8 bits
       Scan type : Progressive
       Bits/(Pixel*Frame) : 0.170
       Stream size : 1.13 GiB (78%)
       Writing library : x264 core 129 r2245 bc13772
       Encoding settings : cabac=1 / ref=10 / deblock=1:-2:-1 / analyse=0x3:0x133 / me=umh / subme=10 / psy=1 / psy_rd=1.15:0.60 / mixed_ref=1 / me_range=32 / chroma_me=1 / trellis=2 / 8x8dct=1 / cqm=0 / deadzone=21,11 / fast_pskip=0 / chroma_qp_offset=-4 / threads=10 / lookahead_threads=1 / sliced_threads=0 / nr=0 / decimate=1 / interlaced=0 / bluray_compat=0 / constrained_intra=0 / bframes=9 / b_pyramid=2 / b_adapt=2 / b_bias=0 / direct=3 / weightb=1 / open_gop=0 / weightp=2 / keyint=240 / keyint_min=22 / scenecut=40 / intra_refresh=0 / rc_lookahead=40 / rc=2pass / mbtree=1 / bitrate=1788 / ratetol=1.0 / qcomp=0.60 / qpmin=10 / qpmax=69 / qpstep=4 / cplxblur=20.0 / qblur=0.5 / ip_ratio=1.40 / aq=1:1.00
    Audio #2
       ID : 2
       Format : AC-3
       Format/Info : Audio Coding 3
       Mode extension : CM (complete main)
       Codec ID : A_AC3
       Duration : 1h 32mn
       Bit rate mode : Constant
       Bit rate : 448 Kbps
       Channel(s) : 6 channels
       Channel positions : Front: L C R, Side: L R, LFE
       Sampling rate : 48.0 KHz
       Bit depth : 16 bits
       Compression mode : Lossy
       Stream size : 297 MiB (20%)
       Title : Профессиональный (многоголосый закадровый)
       Language : Russian

Скриншоты

[Цитировать]

Топик был перенесен из форума Новинки кинопроката в форум Триллер
Henkok



Показать сообщения:    

Текущее время: 04-Дек 19:19

Часовой пояс: UTC + 3


Вы не можете начинать темы
Вы не можете отвечать на сообщения
Вы не можете редактировать свои сообщения
Вы не можете удалять свои сообщения
Вы не можете голосовать в опросах
Вы не можете прикреплять файлы к сообщениям
Вы не можете скачивать файлы

!ВНИМАНИЕ!
Сайт не предоставляет электронные версии произведений, а занимается лишь коллекционированием и каталогизацией ссылок, присылаемых и публикуемых на форуме нашими читателями. Если вы являетесь правообладателем какого-либо представленного материала и не желаете, чтобы ссылка на него находилась в нашем каталоге, свяжитесь с нами, и мы незамедлительно удалим ее. Файлы для обмена на трекере предоставлены пользователями сайта, и администрация не несет ответственности за их содержание. Просьба не заливать файлы, защищенные авторскими правами, а также файлы нелегального содержания!