[ Сегодня идет свободное скачивание без начисления Download ]


Статистика раздачи
Нет
 
   
 
Top  
 
 
-Мотылек / Papillon - Русское название: Мотылек
Оригинальное название: Papillon
Год выпуска: 1973
Страна: США, Франция | Allied Artists Pictures Corporation
Жанр: Драма, Криминал, Биография
Описание фильма:
За убийство, которое он не совершал, взломщик сейфов Анри Шарьер приговорен к пожизненному заключению и отправлен на каторгу. Прозванный «Мотыльком» из-за того, что на его груди вытатуирован этот символ свободы, Анри совершает несколько попыток побега. В наказание власти надолго сажают его в карцер, а затем отправляют во Французскую Гвиану на остров Дьявола, со всех сторон окруженный океаном.
Из этой самой страшной каторжной тюрьмы не удавалось бежать ни одному заключенному. Но ничто не может заставить Анри пасть духом и сломить его решимость вырваться на волю…
- -Режиссер: Фрэнклин Джей Шеффнер
Актеры: Стив МакКуин, Дастин Хоффман, Виктор Джори, Дон Гордон, Энтони Зерби, Роберт Димен, Вудроу Парфри, Билл Муми, Джордж Кулурис, Рэтна Ассан, Уильям Смитерс, Вэл Эйвери, Грегори Сьерра, Вик Тейбэк, Миллс Уотсон, Рон Собл, Барбара Моррисон
Продолжительность: 02:30:47
Перевод:
• Профессиональный (многоголосый, закадровый)
• Профессиональный (двухголосый, закадровый)
• Авторский (одноголосый закадровый) Андрей Гаврилов

Язык субтитров: Русский, английский
Вид субтитров: Вшитые отключаемые-Видео кодек: MPEG-4 AVC/H.264
Битрейт видео: ~10.8 Mbps
Размер кадра: 1080 x 800
Качество видео: BDRip 1080p
Формат: MKV-Видео: 1080 x 800 (2,40:1), 23,976 fps, 10.8 Mbps, 0.294 bit/ pixel
Аудиокодек: DTS , AC3
Аудио #1: Русский ( AC3 / 2.0 / 48 kHz / 192 kbps ) - Многоголосный закадровый ( DVD Магия )
Аудио #2: Русский ( AC3 / 2.0 / 48 kHz / 192 kbps ) - Многоголосный закадровый ( ОРТ )
Аудио #3: Русский ( AC3 / 2.0 / 48 kHz / 192 kbps ) - Двухголосный закадровый
Аудио #4: Русский ( DTS / 5.1 / 48 kHz / 1510 kbps ) - Двухголосный закадровый ( Гланц и Королева )
Аудио #5: Русский ( DTS / 5.1 / 48 kHz / 1510 kbps ) - Одноголосный закадровый ( А.Гаврилов )
Аудио #6: Английский ( DTS / 5.1 / 48 kHz / 1510 kbps )-

Знаете ли вы, что...

• Для Стива Маккуина это была уже вторая тюремная драма, в которой он сыграл героя-беглеца: первой был фильм Джона Стёрджеса «Большой побег» (1963).
• В оригинальном романе Луи Дега — второстепенный персонаж, остающийся за пределами сюжета уже в первой половине книги. В фильме же Дега стал одним из главных героев.
• Создавая образ Луи Дега, Дастин Хоффман вдохновлялся образом соавтора сценария фильма Далтона Трамбо. Особенно это касается отчужденности и застенчивости легендарного сценариста, которые просто поразили Хоффмана при знакомстве с Трамбо.
• Чтобы нормально видеть сквозь толстые стекла очков своего героя, Дастину Хоффману пришлось носить специальные контактные линзы.
• Несмотря на то что оригинальная книга Анри Шарьера является автобиографической, французы во Французской Гвиане единодушно утверждают, что большая часть истории Папильона — не более чем художественный вымысел.
• Документально засвидетельствовано, что Анри Шарьер был заключен в тюрьму Сан-Лоран и, возможно, сбежал оттуда, однако он никогда не был в заключении на знаменитом острове Дьявола, хотя тюремное поселение на этом острове действительно существовало.
• И книга, и фильм представляют берега острова Дьявола как сплошные высокие скалы. На самом деле берега острова Дьявола (ныне известного как остров Спасения) хотя и действительно скалистые, но пологие.
• Когда Папильон в первый раз попадает в карцер, его кусает летучая мышь-вампир. Рана, оставленная ею, выглядит как два маленьких отверстия, из которых сочится кровь, — точь-в-точь как в мистических фильмах о вампирах. Однако проблема в том, что летучие мыши-вампиры, хотя они действительно пьют кровь, действуют при этом несколько иначе, нежели их собратья из легенд. Подлетев к спящему живому существу, летучая мышь-вампир не кусает жертву клыками, которых у рукокрылых попросту нет, а срезает у жертвы маленький кусочек кожи острыми резцами, после чего шершавым языком углубляет ранку. Слюна этих нетопырей содержит химикат, который оказывает обезболивающий эффект, а также препятствует свертываемости крови. После этого летучие мыши парят над жертвой, слизывая капли крови, которые сочатся из ранки.
-

Рецензии зрителей

Любовь к жизниБлестящий и прочувствованный фильм о неукротимом стремлении человека к свободе. О дружбе, которая выживает несмотря на ужасающие условия каторжной тюрьмы. О предательстве ханжей и близких людей. О силе воли, которая преодолевает все преграды.
Дуэт актеров Маккуин-Хофман блистательно играет. Плюс ко всему отличная музыка. Общий посыл фильма напоминает рассказ Джека Лондона «Любовь к жизни». Все пронизано гуманистическим пафосом и верой в человека.
Это один из лучших фильмов за всю историю кинематографа.
-

MediaInfo

Общее
Уникальный идентификатор : 189339221620956834278401136217072232825 (0x8E71685C3020892391ACE02904FA6979)
Полное имя : E:\Интернет-загрузки\Готовые торренты\Мотылек (1973. Papillon).mkv
Формат : Matroska
Версия формата : Version 2
Размер файла : 16,8 Гбайт
Продолжительность : 2 ч. 30 м.
Общий поток : 15,9 Мбит/сек
Дата кодирования : UTC 2011-06-06 18:31:17
Программа кодирования : mkvmerge v4.0.0 ('The Stars were mine') сборка от Jun 6 2010 16:18:42
Библиотека кодирования : libebml v1.0.0 + libmatroska v1.0.0
Видео
Идентификатор : 1
Формат : AVC
Формат/Информация : Advanced Video Codec
Профиль формата : High@L4.1
Параметр CABAC формата : Да
Параметр ReFrames формата : 5 кадров
Идентификатор кодека : V_MPEG4/ISO/AVC
Продолжительность : 2 ч. 30 м.
Битрейт : 10,8 Мбит/сек
Ширина : 1920 пикселей
Высота : 800 пикселей
Соотношение сторон : 2,40:1
Режим частоты кадров : Постоянный
Частота кадров : 23,976 кадра/сек
Цветовое пространство : YUV
Субдискретизация насыщенности : 4:2:0
Битовая глубина : 8 бит
Тип развёртки : Прогрессивная
Бит/(Пиксели*Кадры) : 0.294
Размер потока : 11,1 Гбайт (66%)
Библиотека кодирования : x264 core 115 r1995 c1e60b9
Настройки программы : cabac=1 / ref=5 / deblock=1:-3:-3 / analyse=0x3:0x113 / me=umh / subme=10 / psy=1 / psy_rd=1.05:0.10 / mixed_ref=1 / me_range=48 / chroma_me=1 / trellis=2 / 8x8dct=1 / cqm=0 / deadzone=21,11 / fast_pskip=0 / chroma_qp_offset=-2 / threads=12 / sliced_threads=0 / nr=0 / decimate=1 / interlaced=0 / bluray_compat=0 / constrained_intra=0 / bframes=6 / b_pyramid=2 / b_adapt=2 / b_bias=0 / direct=3 / weightb=1 / open_gop=0 / weightp=2 / keyint=250 / keyint_min=23 / scenecut=40 / intra_refresh=0 / rc_lookahead=60 / rc=2pass / mbtree=1 / bitrate=10831 / ratetol=1.0 / qcomp=0.70 / qpmin=0 / qpmax=69 / qpstep=4 / cplxblur=20.0 / qblur=0.5 / vbv_maxrate=40000 / vbv_bufsize=30000 / nal_hrd=none / ip_ratio=1.40 / aq=1:0.90
Язык : English
Default : Нет
Forced : Нет
Аудио #1
Идентификатор : 2
Формат : AC-3
Формат/Информация : Audio Coding 3
Расширение режима : CM (complete main)
Параметр Endianness формата : Big
Идентификатор кодека : A_AC3
Продолжительность : 2 ч. 30 м.
Вид битрейта : Постоянный
Битрейт : 192 Кбит/сек
Каналы : 2 канала
Расположение каналов : Front: L R
Частота : 48,0 КГц
Битовая глубина : 16 бит
Метод сжатия : С потерями
Размер потока : 207 Мбайт (1%)
Заголовок : MVO (DVD Магия)
Язык : Russian
Default : Нет
Forced : Нет
Аудио #2
Идентификатор : 3
Формат : AC-3
Формат/Информация : Audio Coding 3
Расширение режима : CM (complete main)
Параметр Endianness формата : Big
Идентификатор кодека : A_AC3
Продолжительность : 2 ч. 30 м.
Вид битрейта : Постоянный
Битрейт : 192 Кбит/сек
Каналы : 2 канала
Расположение каналов : Front: L R
Частота : 48,0 КГц
Битовая глубина : 16 бит
Метод сжатия : С потерями
Размер потока : 207 Мбайт (1%)
Заголовок : DVO [ОРТ]
Язык : Russian
Default : Нет
Forced : Нет
Аудио #3
Идентификатор : 4
Формат : AC-3
Формат/Информация : Audio Coding 3
Расширение режима : CM (complete main)
Параметр Endianness формата : Big
Идентификатор кодека : A_AC3
Продолжительность : 2 ч. 30 м.
Вид битрейта : Постоянный
Битрейт : 192 Кбит/сек
Каналы : 2 канала
Расположение каналов : Front: L R
Частота : 48,0 КГц
Битовая глубина : 16 бит
Метод сжатия : С потерями
Размер потока : 207 Мбайт (1%)
Заголовок : DVO
Язык : Russian
Default : Нет
Forced : Нет
Аудио #4
Идентификатор : 5
Формат : DTS
Формат/Информация : Digital Theater Systems
Идентификатор кодека : A_DTS
Продолжительность : 2 ч. 30 м.
Вид битрейта : Постоянный
Битрейт : 1510 Кбит/сек
Каналы : 6 каналов
Расположение каналов : Front: L C R, Side: L R, LFE
Частота : 48,0 КГц
Битовая глубина : 24 бит
Метод сжатия : С потерями
Размер потока : 1,59 Гбайт (9%)
Заголовок : DVO [Гланц и Королева]
Язык : Russian
Default : Нет
Forced : Нет
Аудио #5
Идентификатор : 6
Формат : DTS
Формат/Информация : Digital Theater Systems
Идентификатор кодека : A_DTS
Продолжительность : 2 ч. 30 м.
Вид битрейта : Постоянный
Битрейт : 1510 Кбит/сек
Каналы : 6 каналов
Расположение каналов : Front: L C R, Side: L R, LFE
Частота : 48,0 КГц
Битовая глубина : 24 бит
Метод сжатия : С потерями
Размер потока : 1,59 Гбайт (9%)
Заголовок : AVO [Гаврилов]
Язык : Russian
Default : Нет
Forced : Нет
Аудио #6
Идентификатор : 9
Формат : DTS
Формат/Информация : Digital Theater Systems
Идентификатор кодека : A_DTS
Продолжительность : 2 ч. 30 м.
Вид битрейта : Постоянный
Битрейт : 1510 Кбит/сек
Каналы : 6 каналов
Расположение каналов : Front: L C R, Side: L R, LFE
Частота : 48,0 КГц
Битовая глубина : 24 бит
Метод сжатия : С потерями
Размер потока : 1,59 Гбайт (9%)
Заголовок : Original
Язык : English
Default : Да
Forced : Нет
Текст #1
Идентификатор : 7
Формат : UTF-8
Идентификатор кодека : S_TEXT/UTF8
Идентификатор кодека/Информация : UTF-8 Plain Text
Язык : Russian
Default : Да
Forced : Нет
Текст #2
Идентификатор : 8
Формат : UTF-8
Идентификатор кодека : S_TEXT/UTF8
Идентификатор кодека/Информация : UTF-8 Plain Text
Язык : English
Default : Нет
Forced : Нет
Меню
00:00:00.000 : en:00:00:00.000
00:03:58.321 : en:00:03:58.321
00:08:21.084 : en:00:08:21.084
00:10:31.381 : en:00:10:31.381
00:15:24.006 : en:00:15:24.006
00:16:58.643 : en:00:16:58.643
00:22:14.542 : en:00:22:14.542
00:25:40.414 : en:00:25:40.414
00:30:16.815 : en:00:30:16.815
00:35:01.933 : en:00:35:01.933
00:40:35.850 : en:00:40:35.850
00:43:53.005 : en:00:43:53.005
00:45:50.456 : en:00:45:50.456
00:51:21.954 : en:00:51:21.954
00:56:38.562 : en:00:56:38.562
00:58:26.378 : en:00:58:26.378
01:07:21.955 : en:01:07:21.955
01:09:26.662 : en:01:09:26.662
01:12:26.759 : en:01:12:26.759
01:17:45.911 : en:01:17:45.911
01:21:02.691 : en:01:21:02.691
01:24:08.335 : en:01:24:08.335
01:26:05.535 : en:01:26:05.535
01:32:59.991 : en:01:32:59.991
01:35:57.418 : en:01:35:57.418
01:37:55.953 : en:01:37:55.953
01:42:36.359 : en:01:42:36.359
01:44:18.627 : en:01:44:18.627
01:47:37.201 : en:01:47:37.201
01:51:02.239 : en:01:51:02.239
01:54:34.743 : en:01:54:34.743
02:02:55.910 : en:02:02:55.910
02:07:06.828 : en:02:07:06.828
02:10:31.991 : en:02:10:31.991
02:14:08.624 : en:02:14:08.624
02:16:37.147 : en:02:16:37.147
02:20:06.523 : en:02:20:06.523
02:24:07.472 : en:02:24:07.472
02:27:12.991 : en:02:27:12.991
-Скриншоты:

[Цитировать]



Показать сообщения:    

Текущее время: 10-Дек 17:48

Часовой пояс: UTC + 3


Вы не можете начинать темы
Вы не можете отвечать на сообщения
Вы не можете редактировать свои сообщения
Вы не можете удалять свои сообщения
Вы не можете голосовать в опросах
Вы не можете прикреплять файлы к сообщениям
Вы не можете скачивать файлы

!ВНИМАНИЕ!
Сайт не предоставляет электронные версии произведений, а занимается лишь коллекционированием и каталогизацией ссылок, присылаемых и публикуемых на форуме нашими читателями. Если вы являетесь правообладателем какого-либо представленного материала и не желаете, чтобы ссылка на него находилась в нашем каталоге, свяжитесь с нами, и мы незамедлительно удалим ее. Файлы для обмена на трекере предоставлены пользователями сайта, и администрация не несет ответственности за их содержание. Просьба не заливать файлы, защищенные авторскими правами, а также файлы нелегального содержания!