[ Сегодня идет свободное скачивание без начисления Download ]


Статистика раздачи
Нет
 
   
 
Top  
 
 
-Покорители волн / Chasing Mavericks (2012) BDRip-«Самые опасные волны на планете изменят их навсегда»- Русское название: Покорители волн
Оригинальное название: Chasing Mavericks
Год выпуска: 2012
Производство: США / Fox 2000 Pictures, Walden Media
Жанр: Драма, Спорт
Перевод: Дублированный
Язык субтитров: Русский, Английский
Дата мировой премьеры: 25 октября 2012
Дата российской премьеры: 8 ноября 2012, «UPI»
Дата выхода DVD релиза: 5 февраля 2013, «Парадиз Медиа»
Режиссеры: Майкл Эптед, Кёртис Хэнсон
Актеры: Джерард Батлер, Джонни Уэстон, Элизабет Шу, Эбигейл Спенсер, Ливэн Рамбин, Грег Лонг, Питер Мэл, Зэк Уормхудт, Девин Криттенден, Тейлор Хэндли
Описание фильма:
Серфинг — спорт королей. Не каждый сможет справиться с огромными волнами у побережья Калифорнии. Их называют Мавериками, они достигают 25 метров в высоту. Хессон не раз покорял стихию, но не раскрыл своего секрета никому. Он дал обещание любимой женщине — больше не рисковать жизнью. Но смелость юного Джея подкупила Хессона. Смогут ли они, глядя смерти в лицо, удержаться на гребне волны?

Продолжительность: 01:56:29
Качество видео: BDRip-Видеокодек: MPEG-4 AVC/H.264
Битрейт видео: ~9231 kbps
Размер кадра: 1920 x 1040
Аудиокодек: AC3 5.1 / DTS
Аудио 1: Русский, AC3 5.1, 448 kbps, 48 kHz
Аудио 2: Английский, DTS 5.1, 1510 kbps, 48 kHz-Сэмпл: Скачать-

MediaInfo:

Общее
Уникальный идентификатор : 221013821545198022602020146536376427710 (0xA645B6B549BA72229DF696A97913E4BE)
Полное имя : D:\Films\Chasing.Mavericks.2012.BDRip.1080p.mkv
Формат : Matroska
Версия формата : Version 2
Размер файла : 9,1 Гбайт
Продолжительность : 1 ч. 56 м.
Общий поток : 11,4 Мбит/сек
Дата кодирования : UTC 2013-02-18 15:34:58
Программа кодирования : mkvmerge v5.2.0 ('I can't explain') built on Dec 18 2011 18:12:03
Библиотека кодирования : libebml v1.2.3 + libmatroska v1.3.0
Видео
Идентификатор : 1
Формат : AVC
Формат/Информация : Advanced Video Codec
Профиль формата : High@L4.1
Параметр CABAC формата : Да
Параметр ReFrames формата : 4 кадра
Идентификатор кодека : V_MPEG4/ISO/AVC
Продолжительность : 1 ч. 56 м.
Битрейт : 9231 Кбит/сек
Ширина : 1920 пикселей
Высота : 1040 пикселей
Соотношение сторон : 16:9
Частота кадров : 23,976 кадра/сек
Цветовое пространство : YUV
Субдискретизация насыщенности : 4:2:0
Битовая глубина : 8 бит
Тип развёртки : Прогрессивная
Бит/(Пиксели*Кадры) : 0.193
Размер потока : 7,33 Гбайт (79%)
Библиотека кодирования : x264 core 129 r2245 bc13772
Настройки программы : cabac=1 / ref=4 / deblock=1:0:0 / analyse=0x3:0x133 / me=umh / subme=7 / psy=1 / psy_rd=1.00:0.00 / mixed_ref=1 / me_range=16 / chroma_me=1 / trellis=1 / 8x8dct=1 / cqm=0 / deadzone=21,11 / fast_pskip=0 / chroma_qp_offset=-2 / threads=18 / lookahead_threads=3 / sliced_threads=0 / nr=0 / decimate=1 / interlaced=0 / bluray_compat=0 / constrained_intra=0 / bframes=3 / b_pyramid=2 / b_adapt=1 / b_bias=0 / direct=1 / weightb=1 / open_gop=0 / weightp=2 / keyint=250 / keyint_min=23 / scenecut=40 / intra_refresh=0 / rc_lookahead=40 / rc=2pass / mbtree=1 / bitrate=9231 / ratetol=1.0 / qcomp=0.60 / qpmin=0 / qpmax=69 / qpstep=4 / cplxblur=20.0 / qblur=0.5 / ip_ratio=1.40 / aq=1:1.00
Язык : English
Default : Да
Forced : Нет
Аудио #1
Идентификатор : 2
Формат : AC-3
Формат/Информация : Audio Coding 3
Расширение режима : CM (complete main)
Идентификатор кодека : A_AC3
Продолжительность : 1 ч. 56 м.
Вид битрейта : Постоянный
Битрейт : 448 Кбит/сек
Каналы : 6 каналов
Расположение каналов : Front: L C R, Side: L R, LFE
Частота : 48,0 КГц
Битовая глубина : 16 бит
Метод сжатия : С потерями
Размер потока : 533 Мбайт (6%)
Заголовок : DUB R5
Язык : Russian
Default : Да
Forced : Нет
Аудио #2
Идентификатор : 3
Формат : DTS
Формат/Информация : Digital Theater Systems
Профиль формата : ES
Идентификатор кодека : A_DTS
Продолжительность : 1 ч. 56 м.
Вид битрейта : Постоянный
Битрейт : 1510 Кбит/сек
Каналы : 6 каналов
Расположение каналов : Front: L C R, Side: L R, LFE
Частота : 48,0 КГц
Битовая глубина : 24 бит
Метод сжатия : С потерями
Размер потока : 1,23 Гбайт (13%)
Язык : English
Default : Нет
Forced : Нет
Текст #1
Идентификатор : 4
Формат : UTF-8
Идентификатор кодека : S_TEXT/UTF8
Идентификатор кодека/Информация : UTF-8 Plain Text
Язык : Russian
Default : Нет
Forced : Нет
Текст #2
Идентификатор : 5
Формат : UTF-8
Идентификатор кодека : S_TEXT/UTF8
Идентификатор кодека/Информация : UTF-8 Plain Text
Язык : English
Default : Нет
Forced : Нет
Меню
00:00:00.000 : en:00:00:00.000
00:04:43.366 : en:00:04:43.366
00:08:35.348 : en:00:08:35.348
00:12:48.685 : en:00:12:48.685
00:17:09.028 : en:00:17:09.028
00:22:04.198 : en:00:22:04.198
00:28:15.485 : en:00:28:15.485
00:34:08.463 : en:00:34:08.463
00:38:34.771 : en:00:38:34.771
00:41:36.452 : en:00:41:36.452
00:44:13.693 : en:00:44:13.693
00:48:46.966 : en:00:48:46.966
00:52:18.510 : en:00:52:18.510
00:58:32.926 : en:00:58:32.926
01:00:36.550 : en:01:00:36.550
01:04:33.536 : en:01:04:33.536
01:07:56.864 : en:01:07:56.864
01:12:04.445 : en:01:12:04.445
01:15:16.721 : en:01:15:16.721
01:19:06.867 : en:01:19:06.867
01:23:13.405 : en:01:23:13.405
01:27:31.121 : en:01:27:31.121
01:31:22.185 : en:01:31:22.185
01:35:52.538 : en:01:35:52.538
01:39:34.135 : en:01:39:34.135
01:44:28.012 : en:01:44:28.012
01:49:12.171 : en:01:49:12.171
01:50:18.487 : en:01:50:18.487
-Скриншоты:
-Время раздачи: С 8:00 до 22:00 до 5 скачавших

[Цитировать]

Топик был перенесен из форума Новинки кинопроката (HD Video) в форум Зарубежное кино (HD Video)
Bootch



Показать сообщения:    

Текущее время: 09-Дек 01:04

Часовой пояс: UTC + 3


Вы не можете начинать темы
Вы не можете отвечать на сообщения
Вы не можете редактировать свои сообщения
Вы не можете удалять свои сообщения
Вы не можете голосовать в опросах
Вы не можете прикреплять файлы к сообщениям
Вы не можете скачивать файлы

!ВНИМАНИЕ!
Сайт не предоставляет электронные версии произведений, а занимается лишь коллекционированием и каталогизацией ссылок, присылаемых и публикуемых на форуме нашими читателями. Если вы являетесь правообладателем какого-либо представленного материала и не желаете, чтобы ссылка на него находилась в нашем каталоге, свяжитесь с нами, и мы незамедлительно удалим ее. Файлы для обмена на трекере предоставлены пользователями сайта, и администрация не несет ответственности за их содержание. Просьба не заливать файлы, защищенные авторскими правами, а также файлы нелегального содержания!