[ Сегодня идет свободное скачивание без начисления Download ]


Статистика раздачи
Нет
 
   
 
Top  
 
 
Парад / Parada Год выпуска: 2011
Страна: Сербия, Словения, Хорватия, Черногория, Македония
Производство: Eurimages, Delirium Films
Жанр: Драма, комедия
Режиссер: Сирьян Драгоевич
В ролях: Никола Койо, Милош Самолов, Христина Попович, Горан Евтич, Горан Навожеч, Деян Ачимович, Тони Михайловски, Натаса Маркович, Младен Андреевич, Релья Попович
Перевод: Профессиональный (многоголосый, закадровый)
Субтитры: Отсутствуют
Описание: Радмило и Марко — молодая успешная пара геев. Счастливой эта пара могла бы быть где угодно, но не в Сербии. Парни не афишируют своих взаимоотношений, но ежедневно сталкиваются со всеобщей гомофобией. К тому же, Мирко — активист по защите прав геев. Его мечта — организовать в Белграде первый успешный гей-прайд. А это уже почти что «миссия невыполнима».
Рейтинг IMDB: 7.50 (4 500)
Рейтинг КиноПоиск: 7.212 (2954)
Доп. информация:
Берлинский кинофестиваль
2012
Приз зрительских симпатий за лучший художественный фильм (программа «Панорама»), Приз экуменического (христианского) жюри - особое упоминание (программа «Панорама»), Приз газеты Siegess?ule

Качество: DVDRip
Продолжительность: 01:50:54
Формат: AVI
Видео кодек: XviD
Аудио кодек: MP3
Видео: 704x304 (2.32:1), 25 fps, XviD build 64 ~1644 kbps avg, 0.31 bit/pixel
Аудио: 48.00 kHz, MPEG Layer 3, 2 ch, ~128.00 kbps avg
Премьера (мир): 31 октября 2011
Премьера (РФ): 11 октября 2012, «Кино без границ»

Media Info

General
Complete name : D:\Parada.2011.P.DVDRip.1400MB.avi
Format : AVI
Format/Info : Audio Video Interleave
File size : 1.38 GiB
Duration : 1h 50mn
Overall bit rate : 1 783 Kbps
Writing application : VirtualDubMod 1.5.10.2 (build 2540/release)
Writing library : VirtualDubMod build 2540/release
Video
ID : 0
Format : MPEG-4 Visual
Format profile : [email protected]
Format settings, BVOP : No
Format settings, QPel : No
Format settings, GMC : No warppoints
Format settings, Matrix : Default (H.263)
Codec ID : XVID
Codec ID/Hint : XviD
Duration : 1h 50mn
Bit rate : 1 645 Kbps
Width : 704 pixels
Height : 304 pixels
Display aspect ratio : 2.35:1
Frame rate : 25.000 fps
Color space : YUV
Chroma subsampling : 4:2:0
Bit depth : 8 bits
Scan type : Progressive
Compression mode : Lossy
Bits/(Pixel*Frame) : 0.307
Stream size : 1.27 GiB (92%)
Writing library : XviD 64
Audio
ID : 1
Format : MPEG Audio
Format version : Version 1
Format profile : Layer 3
Codec ID : 55
Codec ID/Hint : MP3
Duration : 1h 50mn
Bit rate mode : Constant
Bit rate : 128 Kbps
Channel(s) : 2 channels
Sampling rate : 44.1 KHz
Compression mode : Lossy
Stream size : 102 MiB (7%)
Alignment : Split accross interleaves
Interleave, duration : 40 ms (1.00 video frame)
Interleave, preload duration : 500 ms

Скриншоты



[Цитировать]

Топик был перенесен из форума Новинки кинопроката в форум Драма
Henkok



Показать сообщения:    

Текущее время: 06-Дек 08:50

Часовой пояс: UTC + 3


Вы не можете начинать темы
Вы не можете отвечать на сообщения
Вы не можете редактировать свои сообщения
Вы не можете удалять свои сообщения
Вы не можете голосовать в опросах
Вы не можете прикреплять файлы к сообщениям
Вы не можете скачивать файлы

!ВНИМАНИЕ!
Сайт не предоставляет электронные версии произведений, а занимается лишь коллекционированием и каталогизацией ссылок, присылаемых и публикуемых на форуме нашими читателями. Если вы являетесь правообладателем какого-либо представленного материала и не желаете, чтобы ссылка на него находилась в нашем каталоге, свяжитесь с нами, и мы незамедлительно удалим ее. Файлы для обмена на трекере предоставлены пользователями сайта, и администрация не несет ответственности за их содержание. Просьба не заливать файлы, защищенные авторскими правами, а также файлы нелегального содержания!