[ Сегодня идет свободное скачивание без начисления Download ]


Статистика раздачи
Нет
 
   
 
Top  
 
 
--Двадцать Одно / 21«В Вегасе ты можешь стать кем угодно»-- -Год выпуска: 2008
Страна: США
Жанр: Драма, криминал-Режиссер: Роберт Лукетич / Robert Luketic-Продолжительность: 02:02:41-Актёрский состав: Джим Стерджесс, Кевин Спейси, Кейт Босворт, Аарон Йоо, Лайза Лапира, Джейкоб Питтс, Лоуренс Фишборн, Джек МакГи, Джош Гэд, Сэм Голзари, Хелен Кэри, Джек Гилпин, Донна Лоуз, Батч Уильямс, Джеффри Ма, Фрэнк Пэттон, Фети Бендида, Роки Селф, Александра МакДугалл-О фильме: Карточная игра — комбинация уникальных математических расчетов, превосходных актерских талантов и хладнокровной выдержки. Карточный игрок — человек особого склада. Молодые люди решили провернуть аферу века и разорить крупнейшие казино страны на астрономическую сумму. Они решили взять Вегас! Их пятеро. Игра захватила их целиком. Их игра поразила своей виртуозностью. Они изменили ход самой игры.- -Личная оценка: 7/10-Качество: BDRip 1080p
Контейнер: MKV
Перевод: Профессиональный (полное дублированние) + оригинал-Видео: кодек: MPEG-4 AVC, размер кадра: 1920x800 (2,40:1), частота кадров: 23.976 fps, битрейт: 15100 Kbps-Аудио #1: язык: Русский, кодек: AC3 5.1, число каналов: 6 каналов, битрейт: 640 kbps, частота: 48.0 KHz [Дублированный]
Аудио #2: язык: Английский, кодек: AC3 5.1, число каналов: 6 каналов, битрейт: 640 kbps, частота: 48.0 KHz [Оригинал]-Субтитры: Русские, Английские-

Знаете ли вы, что...



• Снят фильм по книге Бена Мезрича «Удар по казино», написанной в 2002 году и основанной на реальных событиях.
• Всё началось в 1994 году, когда выдающегося студента MIT пригласили слетать в Алтантик-Сити на бои Холифилда. В те выходные этот паренёк увидел, как математика помогла его друзьям обыграть казино на несколько тысяч долларов за пару часов. Подобной демонстрации хватило для того, чтобы затянуть Кевина (по фильму он Бен) в мир блэкджека.
• Бен Мезрич несколько лет собирал информацию о группе студентов MIT, использовавших усовершенствованную систему подсчёта карт. Он встречался с бывшими участниками команд, с самим главным героем, со специалистами по системам безопасности казино и со всеми остальными, кто имел хоть какое-то отношение к той истории.
• В период с 1994 по 1998 эти одарённые студенты заработали в Вегасе несколько миллионов долларов.
• Съёмки фильма проходили с марта 2007 года в Бостоне и Лас-Вегасе.
• Джефф Ма (прообраз Бена Кемпбелла) засветился в роли крупье в казино Planet Hollywood.


Рейтинг MPAA

Рейтинг PG-13 - Детям до 13 лет просмотр не желателен

Настоятельное предупреждение родителям. Данный рейтинг получают фильмы, содержание которых может считаться неприемлемым для детей, не достигших 13-летнего возраста.
В фильме отсутствуют сцены с насилием и «обнажёнкой», но уже могут присутствовать неконкретизированные эпизоды с наркотиками и слова, связанные с сексом.
-

MediaInfo


General
Unique ID                                : 227440914299141127364560438313046562221 (0xAB1B86D89CF03A9381A0A905C038D5AD)
Complete name                            H:/Dvadtsat Odno (2008) BDRip 1080p [MGT].mkv
Format                                   : Matroska
Format version                           : Version 2
File size                                : 14.0 GiB
Duration                                 : 2h 2mn
Overall bit rate                         : 16.3 Mbps
Movie name                               : ripped by -=mallaigne=-
Encoded date                             : UTC 2012-07-06 13:13:46
Writing application                      : mkvmerge v5.6.0 ('Kenya Kane') built on May 27 2012 16:44:04
Writing library                          : libebml v1.2.3 + libmatroska v1.3.0
Video
ID                                       : 1
Format                                   : AVC
Format/Info                              : Advanced Video Codec
Format profile                           : High@L4.1
Format settings, CABAC                   : Yes
Format settings, ReFrames                : 5 frames
Codec ID                                 : V_MPEG4/ISO/AVC
Duration                                 : 2h 2mn
Bit rate                                 : 15.1 Mbps
Width                                    : 1 920 pixels
Height                                   : 800 pixels
Display aspect ratio                     : 2.40:1
Frame rate                               : 23.976 fps
Color space                              : YUV
Chroma subsampling                       : 4:2:0
Bit depth                                : 8 bits
Scan type                                : Progressive
Bits/(Pixel*Frame)                       : 0.409
Stream size                              : 12.6 GiB (90%)
Title                                    : 60% of the original
Writing library                          : x264 core 125 r2200kMod 999b753
Encoding settings                        : cabac=1 / ref=5 / deblock=1:-3:-3 / analyse=0x3:0x133 / me=umh / subme=11 / psy=1 / fade_compensate=0.00 / psy_rd=1.05:0.00 / mixed_ref=1 / me_range=48 / chroma_me=1 / trellis=2 / 8x8dct=1 / cqm=0 / deadzone=21,11 / fast_pskip=0 / chroma_qp_offset=-2 / threads=12 / lookahead_threads=2 / sliced_threads=0 / nr=0 / decimate=0 / interlaced=0 / bluray_compat=0 / constrained_intra=0 / bframes=10 / b_pyramid=2 / b_adapt=2 / b_bias=0 / direct=3 / weightb=1 / open_gop=0 / weightp=2 / keyint=240 / keyint_min=23 / scenecut=40 / intra_refresh=0 / rc=2pass / mbtree=0 / bitrate=15052 / ratetol=1.0 / qcomp=0.60 / qpmin=0 / qpmax=69 / qpstep=4 / cplxblur=20.0 / qblur=0.5 / ip_ratio=1.40 / pb_ratio=1.30 / aq=3:0.70
Language                                 : English
Default                                  : Yes
Forced                                   : No
Audio #1
ID                                       : 2
Format                                   : AC-3
Format/Info                              : Audio Coding 3
Mode extension                           : CM (complete main)
Format settings, Endianness              : Big
Codec ID                                 : A_AC3
Duration                                 : 2h 2mn
Bit rate mode                            : Constant
Bit rate                                 : 640 Kbps
Channel(s)                               : 6 channels
Channel positions                        : Front: L C R, Side: L R, LFE
Sampling rate                            : 48.0 KHz
Bit depth                                : 16 bits
Compression mode                         : Lossy
Stream size                              : 562 MiB (4%)
Title                                    : Dub AC3 6ch 640kbps
Language                                 : Russian
Default                                  : Yes
Forced                                   : No
Audio #2
ID                                       : 3
Format                                   : AC-3
Format/Info                              : Audio Coding 3
Mode extension                           : CM (complete main)
Format settings, Endianness              : Big
Codec ID                                 : A_AC3
Duration                                 : 2h 2mn
Bit rate mode                            : Constant
Bit rate                                 : 640 Kbps
Channel(s)                               : 6 channels
Channel positions                        : Front: L C R, Side: L R, LFE
Sampling rate                            : 48.0 KHz
Bit depth                                : 16 bits
Compression mode                         : Lossy
Stream size                              : 562 MiB (4%)
Title                                    : Original AC3 6ch 640kbps
Language                                 : English
Default                                  : No
Forced                                   : No
Text #1
ID                                       : 4
Format                                   : UTF-8
Codec ID                                 : S_TEXT/UTF8
Codec ID/Info                            : UTF-8 Plain Text
Language                                 : Russian
Default                                  : No
Forced                                   : No
Text #2
ID                                       : 5
Format                                   : UTF-8
Codec ID                                 : S_TEXT/UTF8
Codec ID/Info                            : UTF-8 Plain Text
Language                                 : English
Default                                  : No
Forced                                   : No
Menu
00:00:00.000                             : :0:00:00.000
00:08:00.271                             : :0:08:00.271
00:16:36.912                             : :0:16:36.912
00:23:36.957                             : :0:23:36.957
00:29:16.963                             : :0:29:16.963
00:32:03.963                             : :0:32:03.963
00:40:51.615                             : :0:40:51.615
00:48:13.890                             : :0:48:13.890
00:55:44.758                             : :0:55:44.758
01:04:20.356                             : :1:04:20.356
01:12:50.616                             : :1:12:50.616
01:22:15.680                             : :1:22:15.680
01:30:05.274                             : :1:30:05.274
01:38:09.884                             : :1:38:09.884
01:45:18.145                             : :1:45:18.145
01:48:58.990                             : :1:48:58.990

Скриншоты




[Цитировать]



Показать сообщения:    

Текущее время: 10-Дек 00:20

Часовой пояс: UTC + 3


Вы не можете начинать темы
Вы не можете отвечать на сообщения
Вы не можете редактировать свои сообщения
Вы не можете удалять свои сообщения
Вы не можете голосовать в опросах
Вы не можете прикреплять файлы к сообщениям
Вы не можете скачивать файлы

!ВНИМАНИЕ!
Сайт не предоставляет электронные версии произведений, а занимается лишь коллекционированием и каталогизацией ссылок, присылаемых и публикуемых на форуме нашими читателями. Если вы являетесь правообладателем какого-либо представленного материала и не желаете, чтобы ссылка на него находилась в нашем каталоге, свяжитесь с нами, и мы незамедлительно удалим ее. Файлы для обмена на трекере предоставлены пользователями сайта, и администрация не несет ответственности за их содержание. Просьба не заливать файлы, защищенные авторскими правами, а также файлы нелегального содержания!