[ Сегодня идет свободное скачивание без начисления Download ]


Статистика раздачи
Нет
 
   
 
Top  
 
 
Сейчас самое время / Now Is Good«Живи. Люби. Мечтай.»- Информация о фильме
Название: Сейчас самое время
Оригинальное название: Now Is Good
Год выхода: 2012
Жанр: Мелодрама
Режиссер: Ол Паркер / Ol Parker
В ролях: Дакота Фаннинг, Джереми Ирвин, Пэдди Консидайн, Оливия Уильямс, Кая Скоделарио, Роуз Лесли, Сара Хэдлэнд, Джо Коул, Рэки Айола, Патрик Балади-О фильме:
Тессе семнадцать, и она хочет жить нормальной жизнью. Она мечтает о тех же вещах, что и все подростки. Но что делать, если времени осталось мало? Тесса принимает решение, прожить все, что отмерено, так, чтобы ни одна минута не пропала зря.
Девушка составляет список того, что обязательно нужно успеть: потерять невинность, попробовать наркотики, прыгнуть с парашютом, по-настоящему полюбить. Она шаг за шагом воплощает свои намерения. Но внезапно вспыхнувшее чувство к соседскому парню Адаму
- -Страна: Великобритания | BBC Films
Продолжительность: 1:42:45
Перевод: Профессиональный (дублированный)
Файл
Кодек: x264@L4.1
Качество: BDRemux 1080p
Видео: 1920x1080 at 24.000 fps, битрейт видео : 19,3 мбит/сек
Звук:
Аудио 1: Russian: 48 kHz/16-bit, DTS, 3/2 (L,C,R,l,r) + LFE ch, 1536 kbps |Дубляж, Blu-ray RUS|
Аудио 2: English: 48 kHz/16-bit, DTS, 3/2 (L,C,R,l,r) + LFE ch,1536 kbps
Субтитры: Русские

Скриншоты

MediaInfo

Общее
Уникальный идентификатор : 213248964161523643768840437903116890780 (0xA06E41AE7E93C5F8928628A519EE729C)
Полное имя : D:VideoNewMoviesNow.Is.Good.2012.1080p.BDRemux.dts.rus.eng.h264.mkv
Формат : Matroska
Версия формата : Version 2
Размер файла : 16,4 Гбайт
Продолжительность : 1 ч. 42 м.
Режим общего битрейта : Переменный
Общий поток : 22,8 Мбит/сек
Название фильма : Now.Is.Good.2012.1080p.BDRemux.dts.rus.eng.h264 from VarMkn
Дата кодирования : UTC 2013-01-25 07:50:05
Программа кодирования : mkvmerge v5.4.0 ('Piper') built on Mar 10 2012 13:34:39
Библиотека кодирования : libebml v1.2.3 + libmatroska v1.3.0
Видео
Идентификатор : 1
Формат : AVC
Формат/Информация : Advanced Video Codec
Профиль формата : High@L4.1
Параметр CABAC формата : Да
Параметр ReFrames формата : 4 кадра
Параметр GOP формата : M=3, N=18
Идентификатор кодека : V_MPEG4/ISO/AVC
Продолжительность : 1 ч. 42 м.
Вид битрейта : Переменный
Битрейт : 19,3 Мбит/сек
Максимальный битрейт : 30,0 Мбит/сек
Ширина : 1920 пикселей
Высота : 1080 пикселей
Соотношение сторон : 16:9
Частота кадров : 24,000 кадра/сек
Стандарт вещания : NTSC
Цветовое пространство : YUV
Субдискретизация насыщенности : 4:2:0
Битовая глубина : 8 бит
Тип развёртки : Прогрессивная
Бит/(Пиксели*Кадры) : 0.389
Размер потока : 13,9 Гбайт (85%)
Default : Да
Forced : Нет
Основные цвета : BT.709-5, BT.1361, IEC 61966-2-4, SMPTE RP177
Характеристики трансфера : BT.709-5, BT.1361
Коэффициенты матрицы : BT.709-5, BT.1361, IEC 61966-2-4 709, SMPTE RP177
Аудио #1
Идентификатор : 2
Формат : DTS
Формат/Информация : Digital Theater Systems
Идентификатор кодека : A_DTS
Продолжительность : 1 ч. 42 м.
Вид битрейта : Постоянный
Битрейт : 1510 Кбит/сек
Каналы : 6 каналов
Расположение каналов : Front: L C R, Side: L R, LFE
Частота : 48,0 КГц
Битовая глубина : 16 бит
Метод сжатия : С потерями
Размер потока : 1,08 Гбайт (7%)
Заголовок : Russian DTS
Язык : Russian
Default : Да
Forced : Нет
Аудио #2
Идентификатор : 3
Формат : DTS
Формат/Информация : Digital Theater Systems
Идентификатор кодека : A_DTS
Продолжительность : 1 ч. 42 м.
Вид битрейта : Постоянный
Битрейт : 1510 Кбит/сек
Каналы : 6 каналов
Расположение каналов : Front: L C R, Side: L R, LFE
Частота : 48,0 КГц
Битовая глубина : 16 бит
Метод сжатия : С потерями
Размер потока : 1,08 Гбайт (7%)
Заголовок : English DTS
Язык : English
Default : Нет
Forced : Нет
Текст
Идентификатор : 4
Формат : UTF-8
Идентификатор кодека : S_TEXT/UTF8
Идентификатор кодека/Информация : UTF-8 Plain Text
Заголовок : Russian Subtitles
Язык : Russian
Default : Нет
Forced : Нет

[Цитировать]



Показать сообщения:    

Текущее время: 31-Мар 04:44

Часовой пояс: UTC + 6


Вы не можете начинать темы
Вы не можете отвечать на сообщения
Вы не можете редактировать свои сообщения
Вы не можете удалять свои сообщения
Вы не можете голосовать в опросах
Вы не можете прикреплять файлы к сообщениям
Вы не можете скачивать файлы

!ВНИМАНИЕ!
Сайт не предоставляет электронные версии произведений, а занимается лишь коллекционированием и каталогизацией ссылок, присылаемых и публикуемых на форуме нашими читателями. Если вы являетесь правообладателем какого-либо представленного материала и не желаете, чтобы ссылка на него находилась в нашем каталоге, свяжитесь с нами, и мы незамедлительно удалим ее. Файлы для обмена на трекере предоставлены пользователями сайта, и администрация не несет ответственности за их содержание. Просьба не заливать файлы, защищенные авторскими правами, а также файлы нелегального содержания!