[ Сегодня идет свободное скачивание без начисления Download ]


Статистика раздачи
Нет
 
   
 
Top  
 
 
-Глубокое синее море / Deep Blue Sea«Больше. Умнее. Быстрее. Злее.»- Год выпуска: 1999
Страна: США, Австралия
Производство: Groucho III Film Partnership, Riche-Ludwig Productions, Village Roadshow Pictures, Warner Bros. Pictures
Жанр: фантастика, боевик, триллер-Режиссер: Ренни Харлин-В ролях: Томас Джейн, Саффрон Берроуз, LL Кул Джей, Майкл Рапапорт, Стеллан Скарсгард, Сэмюэл Л. Джексон, Жаклин МакКензи, Аида Туртурро, Дэниэл Рей, Валенте Родригес, Брент Роам, Эял Поделл, Эринн Бартлетт, Дэн Тиль, Фрэнк Уэлкер, Мэри Кэй Бергман, Ронни Кокс-Перевод: Профессиональный (полное дублирование) -Субтитры: Отсутствуют
Описание: Ученые подводной лаборатории «Акватика», разрабатывая препарат от болезни Альцгеймера, находят способ генетического увеличения мозга подопытных акул.
Агрессивные и злобные хищники превращаются в думающих монстров-убийц, способных перехитрить своих создателей. Герои фильма пытаются справиться с разъяренными хищниками. Но спастись от острых челюстей огромных и умных акул практически невозможно…
- -Качество: BDRip-Продолжительность: 01:45:00-Формат: AVI
Видео кодек: XviD
Аудио кодек: MPEG Audio
Видео: 656x272 (2.41:1), 23.976 fps, XviD build 50 ~856 kbps avg, 0.20 bit/pixel
Аудио: 48 kHz, MPEG Layer 3, 2 ch, ~128.00 kbps avg-Премьера (мир): 26 июля 1999
Премьера (РФ): 31 марта 2000-

Media Info

General
Complete name                    : E:\Фильмы\Глубокое синее море.avi
Format                           : AVI
Format/Info                      : Audio Video Interleave
File size                        : 747 MiB
Duration                         : 1h 45mn
Overall bit rate                 : 994 Kbps
Movie name                       : Глубокое синее море / Deep Blue Sea
Director                         : vasapel
Genre                            : Ужасы, Триллер
Writing application              : VirtualDubMod 1.5.10.2 (build 2540/release)
Original source form/Name        : Movie
Copyright                        : rutracker.org / All Films
Comment                          : Год: 1999 / Бюджет: $60 000 000
Video
ID                               : 0
Format                           : MPEG-4 Visual
Format profile                   : Advanced [email protected]
Format settings, BVOP            : 3
Format settings, QPel            : No
Format settings, GMC             : No warppoints
Format settings, Matrix          : Custom
Codec ID                         : XVID
Codec ID/Hint                    : XviD
Duration                         : 1h 45mn
Bit rate                         : 857 Kbps
Width                            : 656 pixels
Height                           : 272 pixels
Display aspect ratio             : 2.40:1
Frame rate                       : 23.976 fps
Color space                      : YUV
Chroma subsampling               : 4:2:0
Bit depth                        : 8 bits
Scan type                        : Progressive
Compression mode                 : Lossy
Bits/(Pixel*Frame)               : 0.200
Stream size                      : 643 MiB (86%)
Writing library                  : XviD 1.2.1 (UTC 2008-12-04)
Audio
ID                               : 1
Format                           : MPEG Audio
Format version                   : Version 1
Format profile                   : Layer 3
Codec ID                         : 55
Codec ID/Hint                    : MP3
Duration                         : 1h 45mn
Bit rate mode                    : Constant
Bit rate                         : 128 Kbps
Channel(s)                       : 2 channels
Sampling rate                    : 48.0 KHz
Compression mode                 : Lossy
Stream size                      : 96.1 MiB (13%)
Alignment                        : Aligned on interleaves
Interleave, duration             : 42 ms (1.00 video frame)
Interleave, preload duration     : 504 ms
Writing library                  : LAME3.98r
Encoding settings                : -m s -V 4 -q 2 -lowpass 17 -b 128

[Цитировать]



Показать сообщения:    

Текущее время: 04-Дек 02:55

Часовой пояс: UTC + 3


Вы не можете начинать темы
Вы не можете отвечать на сообщения
Вы не можете редактировать свои сообщения
Вы не можете удалять свои сообщения
Вы не можете голосовать в опросах
Вы не можете прикреплять файлы к сообщениям
Вы не можете скачивать файлы

!ВНИМАНИЕ!
Сайт не предоставляет электронные версии произведений, а занимается лишь коллекционированием и каталогизацией ссылок, присылаемых и публикуемых на форуме нашими читателями. Если вы являетесь правообладателем какого-либо представленного материала и не желаете, чтобы ссылка на него находилась в нашем каталоге, свяжитесь с нами, и мы незамедлительно удалим ее. Файлы для обмена на трекере предоставлены пользователями сайта, и администрация не несет ответственности за их содержание. Просьба не заливать файлы, защищенные авторскими правами, а также файлы нелегального содержания!