[ Сегодня идет свободное скачивание без начисления Download ]


Статистика раздачи
Нет
 
   
 
Top  
 
 
-Пятница 13-е / Friday the 13th«Добро пожаловать на Хрустальное озеро»- Год выпуска: 2009
Страна: США
Производство: Crystal Lake Entertainment Inc., MTV Films, New Line Cinema, Paramount Pictures, Platinum Dunes
Жанр: ужасы-Режиссер: Маркус Ниспел-В ролях: Джаред Падалеки, Даниэль Панабэйкер, Аманда Риджетти, Трэвис Ван Винкл, Аарон Йу, Дерек Мирс, Джонатан Садовский, Джулианна Гуилл, Бен Фельдман и Арлен Эскарпета-Перевод: Профессиональный (полное дублирование)
Субтитры: Отсутствуют-Описание: Молодые друзья Уитни, Майк, Ричи, Аманда и Уэйд заблудились в лесах около заброшенного лагеря «Хрустальное озеро». Когда их любопытство взяло верх, они решили посетить то место, где когда-то обитал убийца-психопат. Тем временем Трент приглашает друзей: Джену, Брии, Чеви, Челси, Лоуренса и Нолана в его хижину, расположенную у озера, на уикэнд, полный секса, выпивки и наркотиков.
Однако их забавный уикэнд, по-видимому, скоро перерастет в кошмар после того, как одинокий путешественник Клэй начинает поиски своей пропавшей сестры Уитни, и молодые тинейджеры вскоре оказываются лицом к лицу со злом, заново рожденным, невообразимым, и усовершенствованным, его имя Джейсон Вурхиз!
- -Качество: HDRip-Продолжительность: 01:37:11-Формат: AVI
Видео кодек: XviD
Аудио кодек: MPEG Audio
Видео: 688x288 (2.39:1), 23.976 fps, XviD build 50 ~957 kbps avg, 0.20 bit/pixel
Аудио: 48 kHz, MPEG Layer 3, 2 ch, ~128.00 kbps avg-Премьера (мир): 9 февраля 2009
Премьера (РФ): 12 февраля 2009, «Централ Партнершип»-

Media Info

General
Complete name                    : E:\Фильмы\Пятница 13.avi
Format                           : AVI
Format/Info                      : Audio Video Interleave
File size                        : 761 MiB
Duration                         : 1h 37mn
Overall bit rate                 : 1 095 Kbps
Movie name                       : Пятница 13-е / Friday the 13th (2009) HDRip
Director                         : Rockboy
Writing application              : VirtualDubMod 1.5.10.2 (build 2540/release)
Comment                          : Theatrical version
Video
ID                               : 0
Format                           : MPEG-4 Visual
Format profile                   : Advanced [email protected]
Format settings, BVOP            : 1
Format settings, QPel            : No
Format settings, GMC             : No warppoints
Format settings, Matrix          : Default (MPEG)
Codec ID                         : XVID
Codec ID/Hint                    : XviD
Duration                         : 1h 37mn
Bit rate                         : 958 Kbps
Width                            : 688 pixels
Height                           : 288 pixels
Display aspect ratio             : 2.40:1
Frame rate                       : 23.976 fps
Color space                      : YUV
Chroma subsampling               : 4:2:0
Bit depth                        : 8 bits
Scan type                        : Progressive
Compression mode                 : Lossy
Bits/(Pixel*Frame)               : 0.202
Stream size                      : 666 MiB (87%)
Writing library                  : XviD 1.2.1 (UTC 2008-12-04)
Audio
ID                               : 1
Format                           : MPEG Audio
Format version                   : Version 1
Format profile                   : Layer 3
Mode                             : Joint stereo
Codec ID                         : 55
Codec ID/Hint                    : MP3
Duration                         : 1h 37mn
Bit rate mode                    : Constant
Bit rate                         : 128 Kbps
Channel(s)                       : 2 channels
Sampling rate                    : 48.0 KHz
Compression mode                 : Lossy
Stream size                      : 89.0 MiB (12%)
Alignment                        : Aligned on interleaves
Interleave, duration             : 42 ms (1.00 video frame)
Interleave, preload duration     : 504 ms
Writing library                  : LAME3.93
Encoding settings                : -m j -V 4 -q 0 -lowpass 15.3 -b

[Цитировать]



Показать сообщения:    

Текущее время: 04-Дек 15:21

Часовой пояс: UTC + 3


Вы не можете начинать темы
Вы не можете отвечать на сообщения
Вы не можете редактировать свои сообщения
Вы не можете удалять свои сообщения
Вы не можете голосовать в опросах
Вы не можете прикреплять файлы к сообщениям
Вы не можете скачивать файлы

!ВНИМАНИЕ!
Сайт не предоставляет электронные версии произведений, а занимается лишь коллекционированием и каталогизацией ссылок, присылаемых и публикуемых на форуме нашими читателями. Если вы являетесь правообладателем какого-либо представленного материала и не желаете, чтобы ссылка на него находилась в нашем каталоге, свяжитесь с нами, и мы незамедлительно удалим ее. Файлы для обмена на трекере предоставлены пользователями сайта, и администрация не несет ответственности за их содержание. Просьба не заливать файлы, защищенные авторскими правами, а также файлы нелегального содержания!