[ Сегодня идет свободное скачивание без начисления Download ]


Статистика раздачи
Нет
 
   
 
Top  
 
 
-Правосудие для всех / And Justice for All-«This man needs the best lawyer in town. But the problem is... he is the best lawyer in town.»- Русское название: Правосудие для всех
Оригинальное название: And Justice for All
Год выпуска: 1979
Жанр: Драма, Триллер, Криминал-Режиссер: Норман Джуисон
Актеры: Аль Пачино, Джек Уорден, Джон Форсайт, Кристина Лахти, Джеффри Тэмбор, Ли Страсберг-Описание фильма:
Адвокат Артур Керкланд верит в правосудие и справедливость, но ежедневно, ежеминутно вера его разбивается о реальность. Политики, прокуроры, судьи, адвокаты, преступники и невинно осужденные – безумный хоровод лиц, перетягивающих друг у друга Фемиду на себя, сводит с ума идеалиста Керкланда и ведет его к нервному срыву…-Продолжительность: 01:59:05
Перевод: Дублированный-
Рейтинг R - Детям до 17 лет обязательно присутствие родителей-Видеокодек: MPEG-4 AVC/H.264
Битрейт видео: 5060 Kbps
Размер кадра: 1280x720
Качество видео: BDRip 720p
Аудио #1: Русский, AC3 2.0, 192 kbps |Дубляж|
Аудио #2: Русский, AC3 2.0, 320 kbps |Многоголосый закадровый|
Аудио #3: Русский, AC3 2.0, 192 kbps |Двухголосый закадровый|
Аудио #4: Английский, AC3 5.1, 640 kbps |Оригинал|
Субтитры: English-

Media Info

General
Unique ID : 184793091387807849944931345563341776425 (0x8B05DAD59CC68533955F96738A7F6629)
Complete name : D:\Правосудие для всех [And Justice for All] 720p.mkv
Format : Matroska
File size : 5.33 GiB
Duration : 1h 59mn
Overall bit rate : 6 406 Kbps
Encoded date : UTC 2011-04-30 01:08:28
Writing application : mkvmerge v4.7.0 ('Just Like You Imagined') built on Apr 21 2011 01:13:14
Writing library : libebml v1.2.0 + libmatroska v1.1.0
Video
ID : 1
Format : AVC
Format/Info : Advanced Video Codec
Format profile : High@L4.1
Format settings, CABAC : Yes
Format settings, ReFrames : 5 frames
Codec ID : V_MPEG4/ISO/AVC
Duration : 1h 59mn
Bit rate : 5 060 Kbps
Width : 1 280 pixels
Height : 720 pixels
Display aspect ratio : 16:9
Frame rate : 23.976 fps
Color space : YUV
Chroma subsampling : 4:2:0
Bit depth : 8 bits
Scan type : Progressive
Bits/(Pixel*Frame) : 0.229
Stream size : 4.10 GiB (77%)
Writing library : x264 core 114 r1924 08d04a4
Encoding settings : cabac=1 / ref=5 / deblock=1:0:0 / analyse=0x3:0x113 / me=umh / subme=8 / psy=1 / psy_rd=1.00:0.00 / mixed_ref=1 / me_range=16 / chroma_me=1 / trellis=1 / 8x8dct=1 / cqm=0 / deadzone=21,11 / fast_pskip=1 / chroma_qp_offset=-2 / threads=12 / sliced_threads=0 / nr=0 / decimate=1 / interlaced=0 / constrained_intra=0 / bframes=3 / b_pyramid=2 / b_adapt=2 / b_bias=0 / direct=3 / weightb=1 / open_gop=0 / weightp=2 / keyint=240 / keyint_min=24 / scenecut=40 / intra_refresh=0 / rc_lookahead=50 / rc=2pass / mbtree=1 / bitrate=5060 / ratetol=1.0 / qcomp=0.60 / qpmin=0 / qpmax=69 / qpstep=4 / cplxblur=20.0 / qblur=0.5 / ip_ratio=1.40 / aq=1:1.00
Language : English
Audio #1
ID : 2
Format : AC-3
Format/Info : Audio Coding 3
Mode extension : CM (complete main)
Codec ID : A_AC3
Duration : 1h 59mn
Bit rate mode : Constant
Bit rate : 192 Kbps
Channel(s) : 2 channels
Channel positions : Front: L R
Sampling rate : 48.0 KHz
Bit depth : 16 bits
Compression mode : Lossy
Delay relative to video : 24ms
Stream size : 164 MiB (3%)
Title : Dub
Language : Russian
Audio #2
ID : 3
Format : AC-3
Format/Info : Audio Coding 3
Mode extension : CM (complete main)
Codec ID : A_AC3
Duration : 1h 59mn
Bit rate mode : Constant
Bit rate : 320 Kbps
Channel(s) : 2 channels
Channel positions : Front: L R
Sampling rate : 48.0 KHz
Bit depth : 16 bits
Compression mode : Lossy
Delay relative to video : 24ms
Stream size : 273 MiB (5%)
Title : MVO
Language : Russian
Audio #3
ID : 4
Format : AC-3
Format/Info : Audio Coding 3
Mode extension : CM (complete main)
Codec ID : A_AC3
Duration : 1h 59mn
Bit rate mode : Constant
Bit rate : 192 Kbps
Channel(s) : 2 channels
Channel positions : Front: L R
Sampling rate : 48.0 KHz
Bit depth : 16 bits
Compression mode : Lossy
Delay relative to video : 24ms
Stream size : 164 MiB (3%)
Title : DVO
Language : Russian
Audio #4
ID : 5
Format : AC-3
Format/Info : Audio Coding 3
Mode extension : CM (complete main)
Codec ID : A_AC3
Duration : 1h 59mn
Bit rate mode : Constant
Bit rate : 640 Kbps
Channel(s) : 6 channels
Channel positions : Front: L C R, Side: L R, LFE
Sampling rate : 48.0 KHz
Bit depth : 16 bits
Compression mode : Lossy
Stream size : 545 MiB (10%)
Title : Original
Language : English
Text
ID : 6
Format : UTF-8
Codec ID : S_TEXT/UTF8
Codec ID/Info : UTF-8 Plain Text
Language : English
Скриншоты

[Цитировать]

...And Justice For All
Неплохой альбом группы Metallica

[Цитировать]



Показать сообщения:    

Текущее время: 10-Дек 13:54

Часовой пояс: UTC + 3


Вы не можете начинать темы
Вы не можете отвечать на сообщения
Вы не можете редактировать свои сообщения
Вы не можете удалять свои сообщения
Вы не можете голосовать в опросах
Вы не можете прикреплять файлы к сообщениям
Вы не можете скачивать файлы

!ВНИМАНИЕ!
Сайт не предоставляет электронные версии произведений, а занимается лишь коллекционированием и каталогизацией ссылок, присылаемых и публикуемых на форуме нашими читателями. Если вы являетесь правообладателем какого-либо представленного материала и не желаете, чтобы ссылка на него находилась в нашем каталоге, свяжитесь с нами, и мы незамедлительно удалим ее. Файлы для обмена на трекере предоставлены пользователями сайта, и администрация не несет ответственности за их содержание. Просьба не заливать файлы, защищенные авторскими правами, а также файлы нелегального содержания!