[ Сегодня идет свободное скачивание без начисления Download ]


Статистика раздачи
Нет
 
   
 
Top  
 
 
-Меркурий в опасности / Mercury Rising (1998) [720p] BDRip
«Кто-то знает очень много»
- Русское название: Меркурий в опасности
Оригинальное название: Mercury Rising
Год выпуска: 1998
Выпущено: США, Universal Pictures, Imagine Entertainment
Жанр: Боевик, Драма, Триллер-Описание фильма:
Бывший сотрудник ФБР Арт Джеффрис защищает от безжалостных федеральных агентов Саймона, девятилетнего мальчика, сумевшего вскрыть новый, "не поддающийся дешифровке" правительственный код. Саймон может читать «Меркурий`, новейший шифровальный код, так же легко, как другие дети читают книги. Эти способности ставят под угрозу сам смысл существования новейшей разработки стоимостью миллиард долларов, особенно если враги Соединенных Штатов узнают о необыкновенном мальчике и захватят его. Глава Программы Ник Кудроу приказывает устранить «угрозу безопасности страны`, но он не учитывает, что в дело вмешивается Джеффрис. Преследуемые кровавыми убийцами, Саймон и Джеффрис понимают, что никому доверять нельзя. Время работает не на них, и детектив решает, что единственная надежда на спасение - использовать удивительные способности Саймона и призвать убийц к ответу...-Режиссер: Харольд Бекер
Актеры: Брюс Уиллис, Алек Болдуин, Мико Хьюз, Чи МакБрайд, Ким Дикенс, Роберт Стэнтон, Бодхи Элфмэн, Кэрри Престон, Линдси Гинтер, Петер Стормаре, Кевин Конуэй, Джон Кэрролл Линч, Келли Хазен, Джон Домэн, Ричард Нихль, Чад Линдберг, Хэнк Харрис, Джеймс МакДональд, Камрин Менхейм, Джек Конли-Продолжительность: 01:51:27
Перевод: Дублированный, профессиональный многоголосый, авторский одноголосый
Язык субтитров: Русские (форсированные на надписи), английские
Вид субтитров: Вшитые- -Дата мировой премьеры: 1 апреля 1998
Дата выхода Blu-Ray релиза: 21 сентября 2010, «Юниверсал Пикчерс Рус»
Дата выхода DVD релиза: 4 июня 2012, «Новый Диск»-Видеокодек: MPEG-4 AVC/H.264
Битрейт видео: ~3600 kb/s
Размер кадра: 1280x544
Качество видео: BDRip [720p]
Аудио:
1. Русский: AC3, 2 ch, 448 Кбит/c - Дублированный
2. Русский: AC3, 6 ch, 448 Кбит/с - Профессиональный многоголосый
3. Русский: AC3, 6 ch, 448 Кбит/с - Авторский (одноголосый) Живов
4. Русский: AC3, 6 ch, 448 Кбит/с - Авторский (одноголосый) Вадим Назаров
5. Английский: AC3, 6 ch, 448 Кбит/с-

MediaInfo

Общее
Уникальный идентификатор : 174712274384080043702456751795444705573 (0x83705C2EC813F9FAA71E413EBF18E925)
Полное имя : D:\Торренты\Merkurij.v.opasnosti.1998.x264.BDRip.(720p)-NovaLan.mkv
Формат : Matroska
Версия формата : Version 2
Размер файла : 4,54 Гбайт
Продолжительность : 1 ч. 51 м.
Общий поток : 5837 Кбит/сек
Название фильма : Релиз от NovaLan (alek7120)
Дата кодирования : UTC 2013-02-18 08:07:09
Программа кодирования : mkvmerge v5.6.0 ('Kenya Kane') built on May 27 2012 16:44:04
Библиотека кодирования : libebml v1.2.3 + libmatroska v1.3.0
Видео
Идентификатор : 1
Формат : AVC
Формат/Информация : Advanced Video Codec
Профиль формата : High@L4.1
Параметр CABAC формата : Да
Параметр ReFrames формата : 8 кадров
Идентификатор кодека : V_MPEG4/ISO/AVC
Продолжительность : 1 ч. 51 м.
Битрейт : 3600 Кбит/сек
Ширина : 1280 пикселей
Высота : 544 пикселя
Соотношение сторон : 2,35:1
Частота кадров : 23,976 кадра/сек
Цветовое пространство : YUV
Субдискретизация насыщенности : 4:2:0
Битовая глубина : 8 бит
Тип развёртки : Прогрессивная
Бит/(Пиксели*Кадры) : 0.216
Размер потока : 2,71 Гбайт (60%)
Библиотека кодирования : x264 core 125 r2208 d9d2288
Настройки программы : cabac=1 / ref=8 / deblock=1:-2:-2 / analyse=0x3:0x133 / me=umh / subme=11 / psy=1 / psy_rd=1.00:0.15 / mixed_ref=1 / me_range=48 / chroma_me=0 / trellis=2 / 8x8dct=1 / cqm=0 / deadzone=21,11 / fast_pskip=0 / chroma_qp_offset=-3 / threads=6 / lookahead_threads=1 / sliced_threads=0 / nr=0 / decimate=0 / interlaced=0 / bluray_compat=0 / constrained_intra=0 / bframes=8 / b_pyramid=2 / b_adapt=2 / b_bias=0 / direct=3 / weightb=1 / open_gop=1 / weightp=2 / keyint=240 / keyint_min=23 / scenecut=40 / intra_refresh=0 / rc_lookahead=50 / rc=2pass / mbtree=1 / bitrate=3600 / ratetol=1.0 / qcomp=0.60 / qpmin=0 / qpmax=69 / qpstep=4 / cplxblur=20.0 / qblur=0.5 / ip_ratio=1.40 / aq=1:1.00
Язык : English
Default : Да
Forced : Нет
Аудио #1
Идентификатор : 2
Формат : AC-3
Формат/Информация : Audio Coding 3
Расширение режима : CM (complete main)
Параметр Endianness формата : Big
Идентификатор кодека : A_AC3
Продолжительность : 1 ч. 51 м.
Вид битрейта : Постоянный
Битрейт : 448 Кбит/сек
Каналы : 2 канала
Расположение каналов : Front: L R
Частота : 48,0 КГц
Битовая глубина : 16 бит
Метод сжатия : С потерями
Размер потока : 357 Мбайт (8%)
Заголовок : Дублированный
Язык : Russian
Default : Да
Forced : Нет
Аудио #2
Идентификатор : 3
Формат : AC-3
Формат/Информация : Audio Coding 3
Расширение режима : CM (complete main)
Параметр Endianness формата : Big
Идентификатор кодека : A_AC3
Продолжительность : 1 ч. 51 м.
Вид битрейта : Постоянный
Битрейт : 448 Кбит/сек
Каналы : 6 каналов
Расположение каналов : Front: L C R, Side: L R, LFE
Частота : 48,0 КГц
Битовая глубина : 16 бит
Метод сжатия : С потерями
Размер потока : 357 Мбайт (8%)
Заголовок : Профессиональный многоголосый
Язык : Russian
Default : Нет
Forced : Нет
Аудио #3
Идентификатор : 4
Формат : AC-3
Формат/Информация : Audio Coding 3
Расширение режима : CM (complete main)
Параметр Endianness формата : Big
Идентификатор кодека : A_AC3
Продолжительность : 1 ч. 51 м.
Вид битрейта : Постоянный
Битрейт : 448 Кбит/сек
Каналы : 6 каналов
Расположение каналов : Front: L C R, Side: L R, LFE
Частота : 48,0 КГц
Битовая глубина : 16 бит
Метод сжатия : С потерями
Задержка видео : 1 с. 500 мс.
Размер потока : 357 Мбайт (8%)
Заголовок : Авторский (одноголосый) Живов
Язык : Russian
Default : Нет
Forced : Нет
Аудио #4
Идентификатор : 5
Формат : AC-3
Формат/Информация : Audio Coding 3
Расширение режима : CM (complete main)
Параметр Endianness формата : Big
Идентификатор кодека : A_AC3
Продолжительность : 1 ч. 51 м.
Вид битрейта : Постоянный
Битрейт : 448 Кбит/сек
Каналы : 6 каналов
Расположение каналов : Front: L C R, Side: L R, LFE
Частота : 48,0 КГц
Битовая глубина : 16 бит
Метод сжатия : С потерями
Задержка видео : 1 с. 500 мс.
Размер потока : 357 Мбайт (8%)
Заголовок : Авторский (одноголосый) Вадим Назаров
Язык : Russian
Default : Нет
Forced : Нет
Аудио #5
Идентификатор : 6
Формат : AC-3
Формат/Информация : Audio Coding 3
Расширение режима : CM (complete main)
Параметр Endianness формата : Big
Идентификатор кодека : A_AC3
Продолжительность : 1 ч. 51 м.
Вид битрейта : Постоянный
Битрейт : 448 Кбит/сек
Каналы : 6 каналов
Расположение каналов : Front: L C R, Side: L R, LFE
Частота : 48,0 КГц
Битовая глубина : 16 бит
Метод сжатия : С потерями
Размер потока : 357 Мбайт (8%)
Заголовок : Оригинал (английский)
Язык : English
Default : Нет
Forced : Нет
Текст #1
Идентификатор : 7
Формат : UTF-8
Идентификатор кодека : S_TEXT/UTF8
Идентификатор кодека/Информация : UTF-8 Plain Text
Заголовок : Русские (форсированные на надписи)
Язык : Russian
Default : Да
Forced : Нет
Текст #2
Идентификатор : 8
Формат : UTF-8
Идентификатор кодека : S_TEXT/UTF8
Идентификатор кодека/Информация : UTF-8 Plain Text
Заголовок : английские
Язык : English
Default : Нет
Forced : Нет
Меню
00:00:00.000 : en:00:00:00.000
00:08:45.358 : en:00:08:45.358
00:09:41.581 : en:00:09:41.581
00:11:19.554 : en:00:11:19.554
00:14:16.814 : en:00:14:16.814
00:20:00.866 : en:00:20:00.866
00:23:35.414 : en:00:23:35.414
00:28:00.095 : en:00:28:00.095
00:30:51.391 : en:00:30:51.391
00:35:19.034 : en:00:35:19.034
00:38:59.254 : en:00:38:59.254
00:43:10.713 : en:00:43:10.713
00:47:39.982 : en:00:47:39.982
00:48:51.387 : en:00:48:51.387
00:50:38.285 : en:00:50:38.285
00:53:38.966 : en:00:53:38.966
00:56:18.250 : en:00:56:18.250
01:00:49.855 : en:01:00:49.855
01:02:39.965 : en:01:02:39.965
01:06:01.166 : en:01:06:01.166
01:07:53.194 : en:01:07:53.194
01:09:35.004 : en:01:09:35.004
01:13:33.576 : en:01:13:33.576
01:16:21.869 : en:01:16:21.869
01:19:52.913 : en:01:19:52.913
01:23:31.673 : en:01:23:31.673
01:29:07.175 : en:01:29:07.175
01:34:56.357 : en:01:34:56.357
01:37:55.578 : en:01:37:55.578
01:40:44.747 : en:01:40:44.747
01:42:49.914 : en:01:42:49.914
01:43:57.898 : en:01:43:57.898
01:46:35.723 : en:01:46:35.723
-Скриншоты:

Время раздачи: С 07:00 до 22:00

[Цитировать]



Показать сообщения:    

Текущее время: 10-Дек 04:04

Часовой пояс: UTC + 3


Вы не можете начинать темы
Вы не можете отвечать на сообщения
Вы не можете редактировать свои сообщения
Вы не можете удалять свои сообщения
Вы не можете голосовать в опросах
Вы не можете прикреплять файлы к сообщениям
Вы не можете скачивать файлы

!ВНИМАНИЕ!
Сайт не предоставляет электронные версии произведений, а занимается лишь коллекционированием и каталогизацией ссылок, присылаемых и публикуемых на форуме нашими читателями. Если вы являетесь правообладателем какого-либо представленного материала и не желаете, чтобы ссылка на него находилась в нашем каталоге, свяжитесь с нами, и мы незамедлительно удалим ее. Файлы для обмена на трекере предоставлены пользователями сайта, и администрация не несет ответственности за их содержание. Просьба не заливать файлы, защищенные авторскими правами, а также файлы нелегального содержания!