[ Сегодня идет свободное скачивание без начисления Download ]


Статистика раздачи
Нет
 
   
 
Top  
 
 
-Свой человек / The Insider (1999) [720p] BDRip
«Two men driven to tell the truth... whatever the cost.»
- Русское название: Свой человек
Оригинальное название: The Insider
Год выпуска: 1999
Выпущено: США, Blue Lion Entertainment, Forward Pass, Kaitz Productions, Mann/Roth Productions, Spyglass Entertainment, Touchstone Pictures
Жанр: Триллер, Драма-Описание фильма:
Джеффри Уайгэнда увольняют с поста вице-президента крупнейшей табачной компании за то, что он протестует против использования в табачной продукции компонента, вызывающего у курильщиков наркотическую зависимость. Лоуэлл Бергман, продюсер популярного телешоу, узнает об этом и убеждает Уайгэнда выступить с разоблачительным интервью по телевидению… Естественно, это очень не нравится столпам табачной индустрии, заверяющих в безвредности производимой продукции. Олигархи принимают самые суровые меры, чтобы информация не стала достоянием гласности. От Уайгэнда уходит жена, Лоуэлла Бергмана отправляют в отпуск. Там, где задействованы большие деньги, бесполезно бороться за справедливость, но Лоуэлл и Уайгэнд не прекращают борьбу.-Режиссер: Майкл Манн
Актеры: Аль Пачино, Рассел Кроу, Кристофер Пламмер, Дайан Венора, Филип Бейкер Холл, Линдси Краус, Деби Мейзар, Стивен Тоболовски, Колм Фиор, Брюс МакГилл, Джина Гершон, Майкл Гэмбон, Рип Торн, Линн Тигпен, Халли Кейт Айзенберг, Майкл Пол Чан, Линда Харт, Роберт Харпер, Нестор Серрано, Пит Хэмилл, Уингз Хаузер, Клифф Кёртис, Рени Олстэд, Майкл Мур, Гари Сэнди, Уилли С. Карпентер, Пол Батлер, Джек Палладино, Меган Одбаш, Роджер Барт, Алан Де Сатти, Саид Бадрия, Крис Уфлэнд, Дуглас МакГрат, Билл Сейдж, Джозеф Хинди, Деннис Гарбер, Тим Грим, Пол Перри, Ванда Де Хесус-Продолжительность: 02:37:47
Перевод: Многоголосый закадровый, авторский одноголосый
Язык субтитров: Русские, английские
Вид субтитров: Вшитые- -Дата мировой премьеры: 28 октября 1999
Дата российской премьеры: 13 апреля 2000
Дата выхода DVD релиза: 14 апреля 2011, «Новый Диск»-Видеокодек: MPEG-4 AVC/H.264
Битрейт видео: ~5880 kb/s
Размер кадра: 1280x536
Качество видео: BDRip [720p]
Аудио:
1. Русский: 48 kHz, AC3, 6 ch, ~640 kbps avg [Многоголосый закадровый]
2. Русский: 48 kHz, AC3, 6 ch, ~640 kbps avg [Авторский одноголосый, Пётр Гланц]
3. Русский: 48 kHz, AC3, 2 ch, ~192 kbps avg [Авторский одноголосый, Юрий Живов]
4. Английский: 48 kHz, AC3, 6 ch, ~640 kbps avg [Оригинал]-

MediaInfo

Общее
Уникальный идентификатор : 205948240729995736848966829373206315877 (0x9AF03039C66846EEA451E3A936A04365)
Полное имя : E:\Video\Svoj.chelovek.1999.x264.BDRip.720p.mkv
Формат : Matroska
Версия формата : Version 4 / Version 2
Размер файла : 8,99 Гбайт
Продолжительность : 2 ч. 37 м.
Общий поток : 8154 Кбит/сек
Название фильма : Свой человек / The Insider / 1999 / BDRip -- STarankov
Дата кодирования : UTC 2010-02-22 21:41:31
Программа кодирования : mkvmerge v5.9.0 ('On The Loose') built on Dec 9 2012 15:37:01
Библиотека кодирования : libebml v1.3.0 + libmatroska v1.4.0
Видео
Идентификатор : 1
Формат : AVC
Формат/Информация : Advanced Video Codec
Профиль формата : [email protected]
Параметр CABAC формата : Да
Параметр ReFrames формата : 9 кадров
Идентификатор кодека : V_MPEG4/ISO/AVC
Продолжительность : 2 ч. 37 м.
Битрейт : 5880 Кбит/сек
Ширина : 1280 пикселей
Высота : 536 пикселей
Соотношение сторон : 2,40:1
Режим частоты кадров : Постоянный
Частота кадров : 23,976 кадра/сек
Цветовое пространство : YUV
Субдискретизация насыщенности : 4:2:0
Битовая глубина : 8 бит
Тип развёртки : Прогрессивная
Бит/(Пиксели*Кадры) : 0.357
Размер потока : 6,48 Гбайт (72%)
Библиотека кодирования : x264 core 129 r2245 bc13772
Настройки программы : cabac=1 / ref=9 / deblock=1:-1:-1 / analyse=0x3:0x113 / me=umh / subme=9 / psy=1 / psy_rd=1.00:0.15 / mixed_ref=1 / me_range=24 / chroma_me=1 / trellis=2 / 8x8dct=1 / cqm=0 / deadzone=21,11 / fast_pskip=1 / chroma_qp_offset=-3 / threads=6 / lookahead_threads=1 / sliced_threads=0 / nr=0 / decimate=1 / interlaced=0 / bluray_compat=0 / constrained_intra=0 / bframes=8 / b_pyramid=2 / b_adapt=2 / b_bias=0 / direct=1 / weightb=0 / open_gop=0 / weightp=2 / keyint=230 / keyint_min=23 / scenecut=40 / intra_refresh=0 / rc=crf / mbtree=0 / crf=18.7 / qcomp=0.60 / qpmin=0 / qpmax=69 / qpstep=4 / ip_ratio=1.40 / pb_ratio=1.30 / aq=1:1.00
Язык : English
Default : Да
Forced : Нет
Аудио #1
Идентификатор : 2
Формат : AC-3
Формат/Информация : Audio Coding 3
Расширение режима : CM (complete main)
Параметр Endianness формата : Big
Идентификатор кодека : A_AC3
Продолжительность : 2 ч. 37 м.
Вид битрейта : Постоянный
Битрейт : 640 Кбит/сек
Каналы : 6 каналов
Расположение каналов : Front: L C R, Side: L R, LFE
Частота : 48,0 КГц
Битовая глубина : 16 бит
Метод сжатия : С потерями
Размер потока : 722 Мбайт (8%)
Заголовок : MVO (R5)
Язык : Russian
Default : Да
Forced : Нет
Аудио #2
Идентификатор : 3
Формат : AC-3
Формат/Информация : Audio Coding 3
Расширение режима : CM (complete main)
Параметр Endianness формата : Big
Идентификатор кодека : A_AC3
Продолжительность : 2 ч. 37 м.
Вид битрейта : Постоянный
Битрейт : 640 Кбит/сек
Каналы : 6 каналов
Расположение каналов : Front: L C R, Side: L R, LFE
Частота : 48,0 КГц
Битовая глубина : 16 бит
Метод сжатия : С потерями
Размер потока : 722 Мбайт (8%)
Заголовок : AVO (Пётр Гланц)
Язык : Russian
Default : Нет
Forced : Нет
Аудио #3
Идентификатор : 4
Формат : AC-3
Формат/Информация : Audio Coding 3
Расширение режима : CM (complete main)
Параметр Endianness формата : Big
Идентификатор кодека : A_AC3
Продолжительность : 2 ч. 37 м.
Вид битрейта : Постоянный
Битрейт : 192 Кбит/сек
Каналы : 2 канала
Расположение каналов : Front: L R
Частота : 48,0 КГц
Битовая глубина : 16 бит
Метод сжатия : С потерями
Размер потока : 217 Мбайт (2%)
Заголовок : AVO (Юрий Живов)
Язык : Russian
Default : Нет
Forced : Нет
Аудио #4
Идентификатор : 5
Формат : AC-3
Формат/Информация : Audio Coding 3
Расширение режима : CM (complete main)
Параметр Endianness формата : Big
Идентификатор кодека : A_AC3
Продолжительность : 2 ч. 37 м.
Вид битрейта : Постоянный
Битрейт : 640 Кбит/сек
Каналы : 6 каналов
Расположение каналов : Front: L C R, Side: L R, LFE
Частота : 48,0 КГц
Битовая глубина : 16 бит
Метод сжатия : С потерями
Размер потока : 722 Мбайт (8%)
Заголовок : Original
Язык : English
Default : Нет
Forced : Нет
Текст #1
Идентификатор : 6
Формат : UTF-8
Идентификатор кодека : S_TEXT/UTF8
Идентификатор кодека/Информация : UTF-8 Plain Text
Заголовок : русский
Язык : Russian
Default : Нет
Forced : Нет
Текст #2
Идентификатор : 7
Формат : UTF-8
Идентификатор кодека : S_TEXT/UTF8
Идентификатор кодека/Информация : UTF-8 Plain Text
Заголовок : английский
Default : Нет
Forced : Нет

Награды

Оскар, 2000 год
Номинации (7):
Лучший фильм
Лучшая мужская роль (Рассел Кроу)
Лучший режиссер (Майкл Манн)
Лучший адаптированный сценарий
Лучшая работа оператора
Лучший звук
Лучший монтаж
Золотой глобус, 2000 год
Номинации (5):
Лучший фильм (драма)
Лучшая мужская роль (драма) (Рассел Кроу)
Лучший режиссер (Майкл Манн)
Лучший сценарий
Лучший саундтрек
Британская академия, 2000 год
Номинации (1):
Лучшая мужская роль (Рассел Кроу)

Знаете ли вы, что...

Фильм основан на статье «Человек, который слишком много знал» (автор — Мари Бреннер) из журнала «Vanity Fair».
Гримеры постоянно мучались с густыми волосами Рассела. Сначала ему их выстригали, а в итоге вообще сбрили и заставили надеть парик.
Психологическая драма «Свой человек» является в высокой степени документальной — её сюжет полностью основан на реальных событиях первой половины 90-х годов прошлого века. И режиссёр Майкл Манн, и его вдохновитель Доктор Джеффри С. Уайганд не раз публично заявляли, что художественная фикция в «Своем человеке» ограничена лишь именами супруги и детей Доктора Уайганда, измененных по его просьбе.
-Скриншоты:

Время раздачи: С 07:00 до 22:00

[Цитировать]



Показать сообщения:    

Текущее время: 05-Дек 19:40

Часовой пояс: UTC + 3


Вы не можете начинать темы
Вы не можете отвечать на сообщения
Вы не можете редактировать свои сообщения
Вы не можете удалять свои сообщения
Вы не можете голосовать в опросах
Вы не можете прикреплять файлы к сообщениям
Вы не можете скачивать файлы

!ВНИМАНИЕ!
Сайт не предоставляет электронные версии произведений, а занимается лишь коллекционированием и каталогизацией ссылок, присылаемых и публикуемых на форуме нашими читателями. Если вы являетесь правообладателем какого-либо представленного материала и не желаете, чтобы ссылка на него находилась в нашем каталоге, свяжитесь с нами, и мы незамедлительно удалим ее. Файлы для обмена на трекере предоставлены пользователями сайта, и администрация не несет ответственности за их содержание. Просьба не заливать файлы, защищенные авторскими правами, а также файлы нелегального содержания!