[ Сегодня идет свободное скачивание без начисления Download ]


Статистика раздачи
Нет
 
   
 
Top  
 
 
Слова / The Words«There's more than one way to take a life.»
[Расширенная версия / Extended Cut]
Год выпуска: 2012
Страна: США
Производство: GK Films, Smoke House, Warner Bros. Pictures
Жанр: драма, мелодрама
Режиссёр: Брайан Клагман | Brian Klugman, Ли Стернтал | Lee Sternthal
В ролях: Брэдли Купер, Джереми Айронс, Оливия Уайлд, Зои Салдана, Деннис Куэйд, Брайан Клагман, Джон Ханна, Вито Филлипо, Майкл МакКин, Люсинда Дэвис
Перевод: Профессиональный (полнное дублирование) + Оригинал (Английский)
Субтитры: softsub (SRT) | русские (с BD), английские (обычные и SDH)Описание:Рори Джэнсен — писатель, который наконец обретает долгожданную известность, но его роман-бестселлер оказывается написан другим человеком, которому он теперь должен заплатить высокую цену за украденные у него жизнь и работу.
Дата премьеры (мир): 27 января 2012
Дата премьеры (РФ): 29 ноября 2012, «West»
Релиз на DVD: 22 января 2013, «West Video»
Релиз на Blu-Ray: 22 января 2013, «West Video»
Качество: BDRip-AVC | исх. Слова / The Words (2012) Blu-ray 1080p AVC DTS-HD 7.1
Продолжительность: 01:42:41
Формат: MKV
Видео кодек: H.264
Аудио кодек: AC3
Видео: 1056x572 (16:9), 23,976 fps, H.264 ~3 162 kbps avg, 0.218 bit/pixel
Аудио #1: 48 kHz, AC3, 3/2 (L,C,R,l,r) + LFE ch, ~448.00 kbps avg | Профессиональный (полнное дублирование)
Аудио #2: 48 kHz, AC3, 3/2 (L,C,R,l,r) + LFE ch, ~448.00 kbps avg | Оригинал (Английский)

MediaInfo | x264

x264

x264 [info]: frame I:909 Avg QP:17.21 size: 90516
x264 [info]: frame P:25533 Avg QP:20.38 size: 34989
x264 [info]: frame B:121275 Avg QP:21.95 size: 12035
x264 [info]: consecutive B-frames: 0.8% 0.4% 1.1% 10.4% 14.4% 47.6% 9.5% 7.2% 3.3% 2.7% 1.6% 1.1%
x264 [info]: mb I I16..4: 2.7% 85.6% 11.7%
x264 [info]: mb P I16..4: 0.1% 8.1% 0.5% P16..4: 26.7% 36.7% 18.1% 2.3% 0.1% skip: 7.6%
x264 [info]: mb B I16..4: 0.0% 0.3% 0.0% B16..8: 39.3% 21.7% 4.5% direct: 6.3% skip:27.8% L0:45.4% L1:45.2% BI: 9.4%
x264 [info]: 8x8 transform intra:90.9% inter:56.8%
x264 [info]: direct mvs spatial:98.5% temporal:1.5%
x264 [info]: coded y,uvDC,uvAC intra: 97.4% 83.9% 62.3% inter: 36.7% 15.6% 5.5%
x264 [info]: i16 v,h,dc,p: 18% 25% 12% 46%
x264 [info]: i8 v,h,dc,ddl,ddr,vr,hd,vl,hu: 9% 7% 9% 10% 15% 14% 13% 12% 12%
x264 [info]: i4 v,h,dc,ddl,ddr,vr,hd,vl,hu: 12% 7% 5% 9% 16% 15% 14% 11% 11%
x264 [info]: i8c dc,h,v,p: 42% 23% 18% 16%
x264 [info]: Weighted P-Frames: Y:5.2% UV:0.9%
x264 [info]: ref P L0: 41.3% 6.6% 17.1% 8.5% 6.8% 5.3% 4.4% 2.7% 2.3% 1.9% 1.7% 1.4% 0.0% 0.0%
x264 [info]: ref B L0: 64.7% 14.1% 7.1% 4.0% 3.0% 2.3% 1.9% 1.2% 1.0% 0.5% 0.2%
x264 [info]: ref B L1: 91.8% 8.2%
x264 [info]: kb/s:3162.04
General
Unique ID : 184603239459376605345136607424710790027 (0x8AE14A6962F063CC8AE4046E85754B8B)
Complete name : The.Words.2012.barm.mkv
Format : Matroska
Format version : Version 2
File size : 2.91 GiB
Duration : 1h 42mn
Overall bit rate : 4 061 Kbps
Movie name : The Words 2012
Encoded date : UTC 2013-02-22 20:04:25
Writing application : mkvmerge v5.8.0 ('No Sleep / Pillow') built on Sep 2 2012 15:37:04
Writing library : libebml v1.2.3 + libmatroska v1.3.0
Attachment : Yes
Video
ID : 1
Format : AVC
Format/Info : Advanced Video Codec
Format profile : [email protected]
Format settings, CABAC : Yes
Format settings, ReFrames : 12 frames
Codec ID : V_MPEG4/ISO/AVC
Duration : 1h 42mn
Bit rate : 3 162 Kbps
Width : 1 056 pixels
Height : 572 pixels
Display aspect ratio : 16:9
Frame rate : 23.976 fps
Color space : YUV
Chroma subsampling : 4:2:0
Bit depth : 8 bits
Scan type : Progressive
Bits/(Pixel*Frame) : 0.218
Stream size : 2.21 GiB (76%)
Title : The Words
Writing library : x264 core 129 r2245 bc13772
Encoding settings : cabac=1 / ref=12 / deblock=1:-2:-2 / analyse=0x3:0x133 / me=umh / subme=11 / psy=1 / psy_rd=1.00:0.05 / mixed_ref=1 / me_range=32 /
chroma_me=1 / trellis=2 / 8x8dct=1 / cqm=0 / deadzone=21,11 / fast_pskip=0 / chroma_qp_offset=-3 / threads=6 / lookahead_threads=1 / sliced_threads=0 / nr=0 / decimate=0 /
interlaced=0 / bluray_compat=0 / constrained_intra=0 / bframes=11 / b_pyramid=2 / b_adapt=2 / b_bias=0 / direct=3 / weightb=1 / open_gop=0 / weightp=2 / keyint=250 /
keyint_min=23 / scenecut=40 / intra_refresh=0 / rc_lookahead=60 / rc=2pass / mbtree=0 / bitrate=3162 / ratetol=1.0 / qcomp=0.60 / qpmin=0 / qpmax=69 / qpstep=4 /
cplxblur=20.0 / qblur=0.5 / vbv_maxrate=25000 / vbv_bufsize=31250 / nal_hrd=none / ip_ratio=1.40 / pb_ratio=1.30 / aq=2:0.80 / zones=137564,147716,q=35
Language : English
Default : Yes
Forced : No
Matrix coefficients : BT.709-5, BT.1361, IEC 61966-2-4 709, SMPTE RP177
Audio #1
ID : 2
Format : AC-3
Format/Info : Audio Coding 3
Mode extension : CM (complete main)
Codec ID : A_AC3
Duration : 1h 42mn
Bit rate mode : Constant
Bit rate : 448 Kbps
Channel(s) : 6 channels
Channel positions : Front: L C R, Side: L R, LFE
Sampling rate : 48.0 KHz
Bit depth : 16 bits
Compression mode : Lossy
Stream size : 329 MiB (11%)
Title : Dubljaz, 48 kHz, AC3, 3/2 (L,C,R,l,r) + LFE ch, ~ 448.00 kbps
Language : Russian
Default : Yes
Forced : No
Audio #2
ID : 3
Format : AC-3
Format/Info : Audio Coding 3
Mode extension : CM (complete main)
Codec ID : A_AC3
Duration : 1h 42mn
Bit rate mode : Constant
Bit rate : 448 Kbps
Channel(s) : 6 channels
Channel positions : Front: L C R, Side: L R, LFE
Sampling rate : 48.0 KHz
Bit depth : 16 bits
Compression mode : Lossy
Stream size : 329 MiB (11%)
Title : Original, 48 kHz, AC3, 3/2 (L,C,R,l,r) + LFE ch, ~ 448.00 kbps
Language : English
Default : No
Forced : No
Text #1
ID : 4
Format : UTF-8
Codec ID : S_TEXT/UTF8
Codec ID/Info : UTF-8 Plain Text
Title : BD
Language : Russian
Default : No
Forced : No
Text #2
ID : 5
Format : UTF-8
Codec ID : S_TEXT/UTF8
Codec ID/Info : UTF-8 Plain Text
Language : English
Default : No
Forced : No
Text #3
ID : 6
Format : UTF-8
Codec ID : S_TEXT/UTF8
Codec ID/Info : UTF-8 Plain Text
Title : SDH
Language : English
Default : No
Forced : No
Menu
00:00:00.000 : en:Chapter 1
00:03:57.988 : en:Chapter 2
00:08:39.144 : en:Chapter 3
00:14:33.456 : en:Chapter 4
00:19:25.623 : en:Chapter 5
00:25:23.981 : en:Chapter 6
00:31:36.228 : en:Chapter 7
00:34:43.164 : en:Chapter 8
00:41:16.724 : en:Chapter 9
00:45:40.780 : en:Chapter 10
00:50:32.696 : en:Chapter 11
00:56:45.569 : en:Chapter 12
01:04:45.256 : en:Chapter 13
01:11:44.050 : en:Chapter 14
01:19:55.916 : en:Chapter 15
01:28:32.557 : en:Chapter 16

Скриншоты

[Цитировать]

Топик был перенесен из форума Новинки кинопроката в форум Драма
Henkok



Показать сообщения:    

Текущее время: 05-Дек 15:38

Часовой пояс: UTC + 3


Вы не можете начинать темы
Вы не можете отвечать на сообщения
Вы не можете редактировать свои сообщения
Вы не можете удалять свои сообщения
Вы не можете голосовать в опросах
Вы не можете прикреплять файлы к сообщениям
Вы не можете скачивать файлы

!ВНИМАНИЕ!
Сайт не предоставляет электронные версии произведений, а занимается лишь коллекционированием и каталогизацией ссылок, присылаемых и публикуемых на форуме нашими читателями. Если вы являетесь правообладателем какого-либо представленного материала и не желаете, чтобы ссылка на него находилась в нашем каталоге, свяжитесь с нами, и мы незамедлительно удалим ее. Файлы для обмена на трекере предоставлены пользователями сайта, и администрация не несет ответственности за их содержание. Просьба не заливать файлы, защищенные авторскими правами, а также файлы нелегального содержания!