[ Today is free to download without increasing Download ]

DL-List and Torrent activity
-Американский психопат / American Psycho«From the controversial best-seller by Bret Easton Ellis»- Год выпуска: 2000
Страна: США
Производство: Am Psycho Productions, Edward R. Pressman Film Corporation, Lions Gate Films Inc., Muse Productions, P.P.S. Films, Quadra Entertainment, Universal Pictures
Жанр: драма, криминал-Режиссер: Мэри Херрон-В ролях: Кристиан Бэйл, Уиллем Дэфоу, Джэред Лето, Джош Лукас, Сэмэнта Мэтис, Мэтт Росс, Риз Уизерспун-Перевод: Профессиональный (двухголосый) -Субтитры: Отсутствуют-Описание: Днем он ничем не отличается от окружающих, и в толпе вы не обратите на него внимания. Но ночью этот благовоспитанный гражданин превращается в изощренного убийцу, терроризирующего спящий город.
Современный дикарь, презирающий законы человечества, питается только испепеляющим пламенем своей ненависти, которая растет с каждым новым преступлением. Лавина ужаса приближается к критической черте. Скоро наступит момент, когда ее уже нельзя будет остановить.
- -Качество: HDRip-Продолжительность: 01:42:02-Формат: AVI
Видео кодек: XviD
Аудио кодек: MPEG Audio
Видео: 688x288 (2.39:1), 23.976 fps, XviD build 47 ~885 kbps avg, 0.19 bit/pixel
Аудио: 48 kHz, MPEG Layer 3, 2 ch, ~128.00 kbps avg-Премьера (мир): 21 января 2000-

Media Info

Complete name                    : E:\Фильмы\Американский психопат.avi
Format                           : AVI
Format/Info                      : Audio Video Interleave
File size                        : 747 MiB
Duration                         : 1h 42mn
Overall bit rate                 : 1 023 Kbps
Writing application              : VirtualDubMod (build 2540/release)
Writing library                  : VirtualDubMod build 2540/release
ID                               : 0
Format                           : MPEG-4 Visual
Format profile                   : Advanced Simple@L5
Format settings, BVOP            : 1
Format settings, QPel            : No
Format settings, GMC             : No warppoints
Format settings, Matrix          : Default (MPEG)
Codec ID                         : XVID
Codec ID/Hint                    : XviD
Duration                         : 1h 42mn
Bit rate                         : 886 Kbps
Width                            : 688 pixels
Height                           : 288 pixels
Display aspect ratio             : 2.40:1
Frame rate                       : 23.976 fps
Color space                      : YUV
Chroma subsampling               : 4:2:0
Bit depth                        : 8 bits
Scan type                        : Progressive
Compression mode                 : Lossy
Bits/(Pixel*Frame)               : 0.186
Stream size                      : 646 MiB (87%)
Writing library                  : XviD 1.2.0.dev47 (UTC 2006-11-01)
ID                               : 1
Format                           : MPEG Audio
Format version                   : Version 1
Format profile                   : Layer 3
Codec ID                         : 55
Codec ID/Hint                    : MP3
Duration                         : 1h 42mn
Bit rate mode                    : Constant
Bit rate                         : 128 Kbps
Channel(s)                       : 2 channels
Sampling rate                    : 48.0 KHz
Compression mode                 : Lossy
Stream size                      : 93.4 MiB (13%)
Alignment                        : Aligned on interleaves
Interleave, duration             : 42 ms (1.00 video frame)
Interleave, preload duration     : 504 ms
Writing library                  : LAME3.97
Encoding settings                : -m s -V 4 -q 2 -lowpass 17 -b 128


Display posts:    

Current time is: 28-Oct 20:55

All times are UTC + 3

You cannot post new topics in this forum
You cannot reply to topics in this forum
You cannot edit your posts in this forum
You cannot delete your posts in this forum
You cannot vote in polls in this forum
You cannot attach files in this forum
You cannot download files in this forum

The site does not give electronic versions of products, and is engaged only in a collecting and cataloguing of the references sent and published at a forum by our readers. If you are the legal owner of any submitted material and do not wish that the reference to it was in our catalogue, contact us and we shall immediately remove her. Files for an exchange on tracker are given by users of a site, and the administration does not bear the responsibility for their maintenance. The request to not fill in the files protected by copyrights, and also files of the illegal maintenance!