[ Сегодня идет свободное скачивание без начисления Download ]


Статистика раздачи
Нет
 
   
 
Top  
 
 
Страсти по Чапаю
Год выпуска: 2012
Производство: «Централ Партнёршип» и «ООО «Фаворит – Фильм»
Жанр: Драма, история
Продолжительность: ~ 00:52:00 x 12
Режиссёр: Сергей Щербин
В ролях: Сергей Стрельников, Юлия Галкина, Евгения Лютая, Максим Дрозд, Федор Леонов, Софья Хилькова, Дмитрий Щербина, Александр Соколовский, Карина Андоленко, Кирилл Полухин и.т.д
Описание: Сериал о малоизвестных деталях биографии легендарного комдива Василия Чапаева — первая любовь в 18 лет и побег из родного села, женитьба и семейная жизнь, Первая мировая война, страстные романы с другими женщинами (дочерью белогвардейского офицера и женой красного комиссара), смертельная вражда, сломанные судьбы и неотвратимая гибель на реке Урал.
Доп. информация:
Спасибо mydimka за предоставленный исходник!
релиз -
Сэмпл
Качество: HDTVRip
Формат: AVI
Видео кодек: XviD
Аудио кодек: AC3
Видео: 720x400 (1.80:1), 25 fps, XviD build 65 ~1522 kbps avg, 0.21 bit/pixel
Аудио: 48 kHz, AC3 Dolby Digital, 2/0 (L,R) ch, ~192 kbps

MI

Страсти по Чапаю.HDTVRip-SVAT\Страсти по Чапаю.01.HDTVRip-SVAT.avi
Format : AVI
Format/Info : Audio Video Interleave
File size : 640 MiB
Duration : 51mn 50s
Overall bit rate : 1 725 Kbps
Writing application : VirtualDubMod 1.5.10.3 | www.virtualdub-fr.org || (build 2550/release)
Writing library : VirtualDubMod build 2550/release
Video
ID : 0
Format : MPEG-4 Visual
Format profile : Advanced Simple@L5
Format settings, BVOP : 2
Format settings, QPel : No
Format settings, GMC : No warppoints
Format settings, Matrix : Custom
Codec ID : XVID
Codec ID/Hint : XviD
Duration : 51mn 50s
Bit rate : 1 523 Kbps
Width : 720 pixels
Height : 400 pixels
Display aspect ratio : 16:9
Frame rate : 25.000 fps
Color space : YUV
Chroma subsampling : 4:2:0
Bit depth : 8 bits
Scan type : Progressive
Compression mode : Lossy
Bits/(Pixel*Frame) : 0.212
Stream size : 565 MiB (88%)
Writing library : XviD 65
Audio
ID : 1
Format : AC-3
Format/Info : Audio Coding 3
Mode extension : CM (complete main)
Format settings, Endianness : Big
Codec ID : 2000
Duration : 51mn 50s
Bit rate mode : Constant
Bit rate : 192 Kbps
Channel(s) : 2 channels
Channel positions : Front: L R
Sampling rate : 48.0 KHz
Bit depth : 16 bits
Compression mode : Lossy
Stream size : 71.2 MiB (11%)
Alignment : Split accross interleaves
Interleave, duration : 40 ms (1.00 video frame)
Interleave, preload duration : 500 ms

Скриншоты

[Цитировать]



Показать сообщения:    

Текущее время: 10-Дек 11:47

Часовой пояс: UTC + 3


Вы не можете начинать темы
Вы не можете отвечать на сообщения
Вы не можете редактировать свои сообщения
Вы не можете удалять свои сообщения
Вы не можете голосовать в опросах
Вы не можете прикреплять файлы к сообщениям
Вы не можете скачивать файлы

!ВНИМАНИЕ!
Сайт не предоставляет электронные версии произведений, а занимается лишь коллекционированием и каталогизацией ссылок, присылаемых и публикуемых на форуме нашими читателями. Если вы являетесь правообладателем какого-либо представленного материала и не желаете, чтобы ссылка на него находилась в нашем каталоге, свяжитесь с нами, и мы незамедлительно удалим ее. Файлы для обмена на трекере предоставлены пользователями сайта, и администрация не несет ответственности за их содержание. Просьба не заливать файлы, защищенные авторскими правами, а также файлы нелегального содержания!