[ Сегодня идет свободное скачивание без начисления Download ]


Статистика раздачи
Нет
 
   
 
 
 
Страсти по Чапаю
Год выпуска: 2012
Страна: Россия
Жанр: драма, история
Продолжительность: 00:52:00
Перевод: Не требуется
Русские субтитры: нет
Режиссер: Сергей Щербин
В ролях: Сергей Стрельников, Юлия Галкина, Евгения Лютая, Максим Дрозд, Федор Леонов, Софья Хилькова, Дмитрий Щербина, Александр Соколовский, Карина Андоленко, Кирилл Полухин
Описание: Сериал о малоизвестных деталях биографии легендарного комдива Василия Чапаева — первая любовь в 18 лет и побег из родного села, женитьба и семейная жизнь, Первая мировая война, страстные романы с другими женщинами (дочерью белогвардейского офицера и женой красного комиссара), смертельная вражда, сломанные судьбы и неотвратимая гибель на реке Урал.
Исходник (ссылка): http://rutracker.org/forum/viewtopic.php?t=4253829
Качество: DVDRip
Формат: MP4
Видео кодек: Другой MPEG4
Аудио кодек: AAC
Видео: 640х356 (16:9), MPEG-4 Visual, 1 080 Kbps, 0.19 Bits/Pixel
Аудио: ААС 128 kbps, 2 ch, 48.0 KHz

ТХ/MediaInfo

GeneralComplete name : F:\СТРАСТИ ПО ЧАПАЮ\01.mp4Format : MPEG-4Format profile : Base MediaCodec ID : isomFile size : 456 MiBDuration : 52mn 36sOverall bit rate : 1 212 KbpsWriting application : Lavf52.95.0
VideoID : 1Format : MPEG-4 VisualFormat profile : Simple@L1Format settings, BVOP : NoFormat settings, QPel : NoFormat settings, GMC : No warppointsFormat settings, Matrix : Default (H.263)Codec ID : 20Duration : 52mn 36sBit rate mode : VariableBit rate : 1 080 KbpsWidth : 640 pixelsHeight : 356 pixelsDisplay aspect ratio : 16:9Frame rate mode : ConstantFrame rate : 25.000 fpsResolution : 8 bitsColorimetry : 4:2:0Scan type : ProgressiveBits/(Pixel*Frame) : 0.190Stream size : 406 MiB (89%)Writing library : Lavc52.109.0
AudioID : 2Format : AACFormat/Info : Advanced Audio CodecFormat version : Version 4Format profile : LCFormat settings, SBR : NoCodec ID : 40Duration : 52mn 36sBit rate mode : VariableBit rate : 128 KbpsChannel(s) : 2 channelsChannel positions : L RSampling rate : 48.0 KHzStream size : 48.1 MiB (11%)

Скриншоты

[Цитировать]



Показать сообщения:    

Текущее время: 07-Дек 17:34

Часовой пояс: UTC + 3


Вы не можете начинать темы
Вы не можете отвечать на сообщения
Вы не можете редактировать свои сообщения
Вы не можете удалять свои сообщения
Вы не можете голосовать в опросах
Вы не можете прикреплять файлы к сообщениям
Вы не можете скачивать файлы

!ВНИМАНИЕ!
Сайт не предоставляет электронные версии произведений, а занимается лишь коллекционированием и каталогизацией ссылок, присылаемых и публикуемых на форуме нашими читателями. Если вы являетесь правообладателем какого-либо представленного материала и не желаете, чтобы ссылка на него находилась в нашем каталоге, свяжитесь с нами, и мы незамедлительно удалим ее. Файлы для обмена на трекере предоставлены пользователями сайта, и администрация не несет ответственности за их содержание. Просьба не заливать файлы, защищенные авторскими правами, а также файлы нелегального содержания!