[ Today is free to download without increasing Download ]

DL-List and Torrent activity
Страсти по Чапаю
Год выпуска: 2012
Страна: Россия
Жанр: драма, история
Продолжительность: 00:52:00
Перевод: Не требуется
Русские субтитры: нет
Режиссер: Сергей Щербин
В ролях: Сергей Стрельников, Юлия Галкина, Евгения Лютая, Максим Дрозд, Федор Леонов, Софья Хилькова, Дмитрий Щербина, Александр Соколовский, Карина Андоленко, Кирилл Полухин
Описание: Сериал о малоизвестных деталях биографии легендарного комдива Василия Чапаева — первая любовь в 18 лет и побег из родного села, женитьба и семейная жизнь, Первая мировая война, страстные романы с другими женщинами (дочерью белогвардейского офицера и женой красного комиссара), смертельная вражда, сломанные судьбы и неотвратимая гибель на реке Урал.
Исходник (ссылка): http://rutracker.org/forum/viewtopic.php?t=4253829
Качество: DVDRip
Формат: MP4
Видео кодек: Другой MPEG4
Аудио кодек: AAC
Видео: 640х356 (16:9), MPEG-4 Visual, 1 080 Kbps, 0.19 Bits/Pixel
Аудио: ААС 128 kbps, 2 ch, 48.0 KHz


GeneralComplete name : F:\СТРАСТИ ПО ЧАПАЮ\01.mp4Format : MPEG-4Format profile : Base MediaCodec ID : isomFile size : 456 MiBDuration : 52mn 36sOverall bit rate : 1 212 KbpsWriting application : Lavf52.95.0
VideoID : 1Format : MPEG-4 VisualFormat profile : Simple@L1Format settings, BVOP : NoFormat settings, QPel : NoFormat settings, GMC : No warppointsFormat settings, Matrix : Default (H.263)Codec ID : 20Duration : 52mn 36sBit rate mode : VariableBit rate : 1 080 KbpsWidth : 640 pixelsHeight : 356 pixelsDisplay aspect ratio : 16:9Frame rate mode : ConstantFrame rate : 25.000 fpsResolution : 8 bitsColorimetry : 4:2:0Scan type : ProgressiveBits/(Pixel*Frame) : 0.190Stream size : 406 MiB (89%)Writing library : Lavc52.109.0
AudioID : 2Format : AACFormat/Info : Advanced Audio CodecFormat version : Version 4Format profile : LCFormat settings, SBR : NoCodec ID : 40Duration : 52mn 36sBit rate mode : VariableBit rate : 128 KbpsChannel(s) : 2 channelsChannel positions : L RSampling rate : 48.0 KHzStream size : 48.1 MiB (11%)



Display posts:    

Current time is: 26-Oct 16:15

All times are UTC + 3

You cannot post new topics in this forum
You cannot reply to topics in this forum
You cannot edit your posts in this forum
You cannot delete your posts in this forum
You cannot vote in polls in this forum
You cannot attach files in this forum
You cannot download files in this forum

The site does not give electronic versions of products, and is engaged only in a collecting and cataloguing of the references sent and published at a forum by our readers. If you are the legal owner of any submitted material and do not wish that the reference to it was in our catalogue, contact us and we shall immediately remove her. Files for an exchange on tracker are given by users of a site, and the administration does not bear the responsibility for their maintenance. The request to not fill in the files protected by copyrights, and also files of the illegal maintenance!