[ Сегодня идет свободное скачивание без начисления Download ]


Статистика раздачи
Нет
 
   
 
Top  
 
 
• Банда Ольсена разбушевалась / Olsen Banden g?r amok •
? Год выпуска: 1973
? Страна: Дания
? Производство: Nordisk Film A/S
? Жанр: Комедия, Криминал
? Режиссёр: Эрик Баллинг
? В ролях: Ове Спрогёе, Мортен Грунвалль, Поуль Бунгор, Кирстен Вальтер, Пребен Каас, Аксель Стрёби, Биргитт Федершпиль, Айнер Федершпиль, Йеспер Лангберг, Артур Йенсен, Хелле Виркнер, Бенни Хансен, Йес Холтсё
? Перевод: Любительский (одноголосый, закадровый) (Перевод: bakin)
? Озвучка: renege79
? Субтитры: Нет
? Описание: Пятый фильм "Ольсенианы". После очередной отсидки Эгон, как всегда, выходит из государственной тюрьмы Вридлёсе. Но встречает его лишь Гарри-Динамит. Оказывается, Бенни и Кьель устроились на работу и больше не хотят иметь с ними дел. Эгону и Гарри не остается ничего другого, кроме как пойти на дело вдвоём. И хотя ничего хорошего из этого не получится, а невиновные Бенни с Кьелем угодят за решётку, всё закончится вполне удачно. Даже для Эгона.

? Качество: HDRip
? Продолжительность: 01:40:43 час.
? Формат: AVI
? Видео кодек: XviD
? Аудио кодек: MP3
? Видео: 688x416 (1.654:1), 23,976 fps, XviD build 65 ~897 kbps avg, 0.131 bit/pixel
? Аудио: 48 kHz, MPEG Layer 3, 2 ch, ~128 kbps
? Дата премьеры (мир): 5 октября 1973

Media Info

Видео
Идентификатор                            : 0
Формат                                   : MPEG-4 Visual
Профиль формата                          : Advanced [email protected]
Параметр BVOP формата                    : 2
Параметр QPel формата                    : Нет
Параметр GMC формата                     : Без точки перехода
Параметр матрицы формата                 : Выборочная
Идентификатор кодека                     : XVID
Идентификатор кодека/Подсказка           : XviD
Продолжительность                        : 1 ч. 40 м.
Битрейт                                  : 897 Кбит/сек
Ширина                                   : 688 пикселей
Высота                                   : 416 пикселей
Соотношение сторон                       : 1,654
Частота кадров                           : 23,976 кадра/сек
Цветовое пространство                    : YUV
Субдискретизация насыщенности            : 4:2:0
Битовая глубина                          : 8 бит
Тип развёртки                            : Прогрессивная
Метод сжатия                             : С потерями
Бит/(Пиксели*Кадры)                      : 0.131
Размер потока                            : 646 Мбайт (87%)
Библиотека кодирования                   : XviD 65
Аудио
Идентификатор                            : 1
Формат                                   : MPEG Audio
Версия формата                           : Version 1
Профиль формата                          : Layer 3
Режим                                    : Joint stereo
Расширение режима                        : MS Stereo
Идентификатор кодека                     : 55
Идентификатор кодека/Подсказка           : MP3
Продолжительность                        : 1 ч. 40 м.
Вид битрейта                             : Постоянный
Битрейт                                  : 128 Кбит/сек
Каналы                                   : 2 канала
Частота                                  : 48,0 КГц
Метод сжатия                             : С потерями
Размер потока                            : 92,2 Мбайт (12%)
Выравнивание                             : Соединение по промежуткам
Продолжительность промежутка             : 42  мс. (1,00 видеокадр)
Время предзагрузки промежутка            : 504  мс.

Скриншоты



[Цитировать]



Показать сообщения:    

Текущее время: 05-Дек 21:35

Часовой пояс: UTC + 3


Вы не можете начинать темы
Вы не можете отвечать на сообщения
Вы не можете редактировать свои сообщения
Вы не можете удалять свои сообщения
Вы не можете голосовать в опросах
Вы не можете прикреплять файлы к сообщениям
Вы не можете скачивать файлы

!ВНИМАНИЕ!
Сайт не предоставляет электронные версии произведений, а занимается лишь коллекционированием и каталогизацией ссылок, присылаемых и публикуемых на форуме нашими читателями. Если вы являетесь правообладателем какого-либо представленного материала и не желаете, чтобы ссылка на него находилась в нашем каталоге, свяжитесь с нами, и мы незамедлительно удалим ее. Файлы для обмена на трекере предоставлены пользователями сайта, и администрация не несет ответственности за их содержание. Просьба не заливать файлы, защищенные авторскими правами, а также файлы нелегального содержания!