[ Сегодня идет свободное скачивание без начисления Download ]


Статистика раздачи
Нет
 
   
 
Top  
 
 
• Коллекционер 2 / The Collection •«Не попади в его коллекцию»
Год выпуска: 2012
Страна: США
Производство: Fortress Features, Liddell Entertainment
Жанр: Ужасы, боевик, триллер
Режиссёр: Маркус Данстэн
В ролях: Джош Стюарт, Эмма Фитцпатрик, Кристофер МакДональд, Ли Тергесен, Тим Гриффин, Андре Ройо, Рэндолл Арчер, Шеннон Кэйн, Брэндон, Молале, Эрин Вэй
Перевод: Профессиональный (полное дублирование)
Субтитры: Нет
Описание: Бывалому медвежатнику Аркину чудесным образом удалось выбраться из ловушек, расставленных по дому загадочным маньяком Коллекционером. Аркин был уверен, что он никогда в жизни больше не встретится с Коллекциoнером, но cудьба распоряжается иначе. Дата премьеры (мир): 21 сентября 2012
Дата премьеры (РФ): 29 ноября 2012, «Каравелла DDC»
Качество: HDRip | Сэмпл |Сравнение скриншотовс этой раздачей
Продолжительность: 01:18:24
Формат: AVI
Видео кодек: XviD
Аудио кодек: AC3
Видео: 720x304 (2.35,:1), 24.000 fps, XviD build 50 ~2083 kbps avg, 0.397 bit/pixel
Аудио: 48 kHz, AC3 Dolby Digital, 3/2 (L,C,R,l,r) + LFE ch, ~448.00 kbps avg

Mediainfo:

General
       Format : AVI
       Format/Info : Audio Video Interleave
       File size : 1.45 GiB
       Duration : 1h 21mn
       Overall bit rate : 2 541 Kbps
       Writing application : VirtualDubMod 1.5.10.2 (build 2540/release)
       Writing library : VirtualDubMod build 2540/release
    Video #0
       ID : 0
       Format : MPEG-4 Visual
       Format profile : Advanced [email protected]
       Format settings, BVOP : Yes
       Format settings, QPel : No
       Format settings, GMC : No warppoints
       Format settings, Matrix : Custom
       Codec ID : XVID
       Codec ID/Hint : XviD
       Duration : 1h 21mn
       Bit rate : 2 083 Kbps
       Width : 720 pixels
       Height : 304 pixels
       Display aspect ratio : 2.35:1
       Frame rate : 24.000 fps
       Color space : YUV
       Chroma subsampling : 4:2:0
       Bit depth : 8 bits
       Scan type : Progressive
       Compression mode : Lossy
       Bits/(Pixel*Frame) : 0.397
       Stream size : 1.19 GiB (82%)
       Writing library : XviD 1.2.1 (UTC 2008-12-04)
    Audio #1
       ID : 1
       Format : AC-3
       Format/Info : Audio Coding 3
       Mode extension : CM (complete main)
       Codec ID : 2000
       Duration : 1h 21mn
       Bit rate mode : Constant
       Bit rate : 448 Kbps
       Channel(s) : 6 channels
       Channel positions : Front: L C R, Side: L R, LFE
       Sampling rate : 48.0 KHz
       Bit depth : 16 bits
       Compression mode : Lossy
       Stream size : 262 MiB (18%)
       Alignment : Split accross interleaves
       Interleave, duration : 42 ms (1.00 video frame)
       Interleave, preload duration : 500 ms

Скриншоты

[Цитировать]

Топик был перенесен из форума Новинки кинопроката в форум Ужасы
Henkok



Показать сообщения:    

Текущее время: 05-Дек 03:26

Часовой пояс: UTC + 3


Вы не можете начинать темы
Вы не можете отвечать на сообщения
Вы не можете редактировать свои сообщения
Вы не можете удалять свои сообщения
Вы не можете голосовать в опросах
Вы не можете прикреплять файлы к сообщениям
Вы не можете скачивать файлы

!ВНИМАНИЕ!
Сайт не предоставляет электронные версии произведений, а занимается лишь коллекционированием и каталогизацией ссылок, присылаемых и публикуемых на форуме нашими читателями. Если вы являетесь правообладателем какого-либо представленного материала и не желаете, чтобы ссылка на него находилась в нашем каталоге, свяжитесь с нами, и мы незамедлительно удалим ее. Файлы для обмена на трекере предоставлены пользователями сайта, и администрация не несет ответственности за их содержание. Просьба не заливать файлы, защищенные авторскими правами, а также файлы нелегального содержания!