[ Today is free to download without increasing Download ]

DL-List and Torrent activity
• Коллекционер 2 / The Collection •«Не попади в его коллекцию»
Год выпуска: 2012
Страна: США
Производство: Fortress Features, Liddell Entertainment
Жанр: Ужасы, боевик, триллер
Режиссёр: Маркус Данстэн
В ролях: Джош Стюарт, Эмма Фитцпатрик, Кристофер МакДональд, Ли Тергесен, Тим Гриффин, Андре Ройо, Рэндолл Арчер, Шеннон Кэйн, Брэндон, Молале, Эрин Вэй
Перевод: Профессиональный (полное дублирование)
Субтитры: Нет
Описание: Бывалому медвежатнику Аркину чудесным образом удалось выбраться из ловушек, расставленных по дому загадочным маньяком Коллекционером. Аркин был уверен, что он никогда в жизни больше не встретится с Коллекциoнером, но cудьба распоряжается иначе. Дата премьеры (мир): 21 сентября 2012
Дата премьеры (РФ): 29 ноября 2012, «Каравелла DDC»
Качество: HDRip | Сэмпл |Сравнение скриншотовс этой раздачей
Продолжительность: 01:18:24
Формат: AVI
Видео кодек: XviD
Аудио кодек: AC3
Видео: 720x304 (2.35,:1), 24.000 fps, XviD build 50 ~2083 kbps avg, 0.397 bit/pixel
Аудио: 48 kHz, AC3 Dolby Digital, 3/2 (L,C,R,l,r) + LFE ch, ~448.00 kbps avg


       Format : AVI
       Format/Info : Audio Video Interleave
       File size : 1.45 GiB
       Duration : 1h 21mn
       Overall bit rate : 2 541 Kbps
       Writing application : VirtualDubMod (build 2540/release)
       Writing library : VirtualDubMod build 2540/release
    Video #0
       ID : 0
       Format : MPEG-4 Visual
       Format profile : Advanced Simple@L5
       Format settings, BVOP : Yes
       Format settings, QPel : No
       Format settings, GMC : No warppoints
       Format settings, Matrix : Custom
       Codec ID : XVID
       Codec ID/Hint : XviD
       Duration : 1h 21mn
       Bit rate : 2 083 Kbps
       Width : 720 pixels
       Height : 304 pixels
       Display aspect ratio : 2.35:1
       Frame rate : 24.000 fps
       Color space : YUV
       Chroma subsampling : 4:2:0
       Bit depth : 8 bits
       Scan type : Progressive
       Compression mode : Lossy
       Bits/(Pixel*Frame) : 0.397
       Stream size : 1.19 GiB (82%)
       Writing library : XviD 1.2.1 (UTC 2008-12-04)
    Audio #1
       ID : 1
       Format : AC-3
       Format/Info : Audio Coding 3
       Mode extension : CM (complete main)
       Codec ID : 2000
       Duration : 1h 21mn
       Bit rate mode : Constant
       Bit rate : 448 Kbps
       Channel(s) : 6 channels
       Channel positions : Front: L C R, Side: L R, LFE
       Sampling rate : 48.0 KHz
       Bit depth : 16 bits
       Compression mode : Lossy
       Stream size : 262 MiB (18%)
       Alignment : Split accross interleaves
       Interleave, duration : 42 ms (1.00 video frame)
       Interleave, preload duration : 500 ms



Топик был перенесен из форума Новинки кинопроката в форум Ужасы

Display posts:    

Current time is: 25-Oct 15:06

All times are UTC + 3

You cannot post new topics in this forum
You cannot reply to topics in this forum
You cannot edit your posts in this forum
You cannot delete your posts in this forum
You cannot vote in polls in this forum
You cannot attach files in this forum
You cannot download files in this forum

The site does not give electronic versions of products, and is engaged only in a collecting and cataloguing of the references sent and published at a forum by our readers. If you are the legal owner of any submitted material and do not wish that the reference to it was in our catalogue, contact us and we shall immediately remove her. Files for an exchange on tracker are given by users of a site, and the administration does not bear the responsibility for their maintenance. The request to not fill in the files protected by copyrights, and also files of the illegal maintenance!