[ Сегодня идет свободное скачивание без начисления Download ]


Статистика раздачи
Нет
 
   
 
Top  
 
 
[sh]Любовь не делится на два[/sh]
Год выпуска: 2013
Производство: Россия, Про100 фильм
Жанр: мелодрама
Продолжительность: 4 x ~00:44:00
Режиссёр: Кира Ангелина
В ролях: Анна Пескова, Дмитрий Ефремов, Татьяна Лютаева, Михаил Мамаев, Александр Наумов, Екатерина Семёнова, Анна Шепелева, Дмитрий Ендальцев, Игорь Новоселов (II), Галина Бокашевская, Юлия Сорокина, Екатерина Присмотрова-Белова, Ксения Ильясова
Описание: В Москве в скромной хрущевке живут Яков, Соня и их сын Денис. Парню восемнадцать, а он все никак за ум не возьмется — бренчит целыми днями на гитаре да песни сочиняет. Соня преподает в школе русский язык и литературу, ведет театральный кружок, да еще и репетитором подрабатывает.
А в Самаре живет семья Глеба Дорохова. Глеб — сослуживец Якова и женат на сестре Сони — Раисе.
Наша история начинается с того, что Марина приезжает в Москву, а Денис — в Самару. Причин на то много. Марине надо поступать в университет, учиться. А Денису давно пора браться за ум — Соня надеется, что Глеб займет его делом. Все бы ничего, но, похоже, есть тайна, которая долгие годы связывает две семьи.- -Сэмпл: http://multi-up.com/829631-Качество: SATRip
Формат: AVI
Видео кодек: XviD
Аудио кодек: MP3
Видео: 704x400, 25 fps, XviD, ~1650 kbps, 0.229 bit/pixel
Аудио: 48 kHz, MPEG Layer 3, 2 ch, 192 kbps

MI

Видео
:Общее
Полное имя : Z:\Video5\Ljubov'.ne.delitsja.na.dva.(STB_2013)\Ljubov'.ne.delitsja.na.dva.(serija.1.iz.4).2013.XviD.SATRip.by.simka.avi
Формат : AVI
Формат/Информация : Audio Video Interleave
Размер файла : 557 Мбайт
Продолжительность : 42 м.
Общий поток : 1847 Кбит/сек
Программа кодирования : VirtualDubModRus 1.5.10.2 (build 2542/release)
Библиотека кодирования : VirtualDubMod build 2542/release
Видео
Идентификатор : 0
Формат : MPEG-4 Visual
Профиль формата : Advanced [email protected]
Параметр BVOP формата : 1
Параметр QPel формата : Нет
Параметр GMC формата : Без точки перехода
Параметр матрицы формата : Default (H.263)
Идентификатор кодека : XVID
Идентификатор кодека/Подсказка : XviD
Продолжительность : 42 м.
Битрейт : 1645 Кбит/сек
Ширина : 704 пикс.
Высота : 400 пикс.
Соотношение сторон : 16:9
Частота кадров : 25,000 кадр/сек
Цветовое пространство : YUV
Подвыборка цветности : 4:2:0
Битовая глубина : 8 бит
Тип развёртки : Прогрессивная
Метод сжатия : С потерями
Бит/(Пиксели*Кадры) : 0.234
Размер потока : 497 Мбайт (89%)
Библиотека кодирования : XviD 1.2.1 (UTC 2008-12-04)
Аудио
Идентификатор : 1
Формат : MPEG Audio
Версия формата : Version 1
Профиль формата : Layer 3
Режим : Joint stereo
Расширение режима : MS Stereo
Идентификатор кодека : 55
Идентификатор кодека/Подсказка : MP3
Продолжительность : 42 м.
Вид битрейта : Постоянный
Битрейт : 192 Кбит/сек
Каналы : 2 канала
Частота : 48,0 КГц
Метод сжатия : С потерями
Размер потока : 57,9 Мбайт (10%)
Выравнивание : Соединение по промежуткам
Продолжительность промежутка : 40 мс. (1,00 видеокадр)
Время предзагрузки промежутка : 504 ms
Библиотека кодирования : LAME3.98r
Настройки программы : -m j -V 4 -q 2 -lowpass 18.6 -b 192
:

Скриншоты

[Цитировать]



Показать сообщения:    

Текущее время: 04-Дек 17:21

Часовой пояс: UTC + 3


Вы не можете начинать темы
Вы не можете отвечать на сообщения
Вы не можете редактировать свои сообщения
Вы не можете удалять свои сообщения
Вы не можете голосовать в опросах
Вы не можете прикреплять файлы к сообщениям
Вы не можете скачивать файлы

!ВНИМАНИЕ!
Сайт не предоставляет электронные версии произведений, а занимается лишь коллекционированием и каталогизацией ссылок, присылаемых и публикуемых на форуме нашими читателями. Если вы являетесь правообладателем какого-либо представленного материала и не желаете, чтобы ссылка на него находилась в нашем каталоге, свяжитесь с нами, и мы незамедлительно удалим ее. Файлы для обмена на трекере предоставлены пользователями сайта, и администрация не несет ответственности за их содержание. Просьба не заливать файлы, защищенные авторскими правами, а также файлы нелегального содержания!