[ Сегодня идет свободное скачивание без начисления Download ]


Статистика раздачи
Нет
 
   
 
Top  
 
 
Немой -Год выпуска: 2012
Производство: Прима-Фильм
Жанр: детектив
Продолжительность: 00:45:00
Режиссёр: Александр Итыгилов (мл.)
В ролях: Вячеслав Разбегаев, Леонид Громов, Михаил Тарабукин, Елена Шилова, Георгий Хостикоев, Андрей Саминин, Надежда Борисова, Олег Савкин, Владимир Горянский, Даниил Чернега, Надежда Борисова
Описание: Так сложились обстоятельства, что в морозную зимнюю ночь молодые люди Гоша, Даша и Валерий вынуждены искать спасения от холода. Поскольку у друзей нет другого выхода, они залезают в чужой дом. Здесь они оказываются под дулом ружья странного человека, которого принимают за хозяина дома. Человек молчит, словно немой, и не снимает маску волка с лица. "Хозяин" проявляет терпимость и гостеприимство, он угощает незваных гостей коньяком и чаем, помогает им завести заглохшую машину и вытащить ее из сугроба. Но когда гости засыпают, немой забирает из потайного сейфа крупную сумму денег, снимает со стены самую ценную картину, а сам прячется в потайной комнате.- -Сэмпл-Качество: SATRip
Формат: AVI
Видео кодек: XviD
Аудио кодек: MP3
Видео: 720x400 (1.80:1), 25 fps, XviD build 65 ~1421 kbps avg, 0.20 bit/pixel
Аудио: 48 kHz, MPEG Layer 3, 2 ch, ~128.00 kbps avg

MI

ОбщееПолное имя : D:\Раздачи\Немой 2012 SATRip\Немой 01 2012 SATRip.aviФормат : AVIФормат/Информация : Audio Video InterleaveРазмер файла : 500 МбайтПродолжительность : 44 м.Общий поток : 1560 Кбит/секПрограмма кодирования : VirtualDubMod 1.5.10.2 (build 2540/release)Библиотека кодирования : VirtualDubMod build 2540/release
ВидеоИдентификатор : 0Формат : MPEG-4 VisualПрофиль формата : Advanced [email protected] BVOP формата : 2Параметр QPel формата : НетПараметр GMC формата : Без точки переходаПараметр матрицы формата : Default (MPEG)Идентификатор кодека : XVIDИдентификатор кодека/Подсказка : XviDПродолжительность : 44 м.Битрейт : 1422 Кбит/секШирина : 720 пикселейВысота : 400 пикселейСоотношение сторон : 16:9Частота кадров : 25,000 кадров/секЦветовое пространство : YUVСубдискретизация насыщенности : 4:2:0Битовая глубина : 8 битТип развёртки : ПрогрессивнаяМетод сжатия : С потерямиБит/(Пиксели*Кадры) : 0.197Размер потока : 456 Мбайт (91%)Библиотека кодирования : XviD 65
АудиоИдентификатор : 1Формат : MPEG AudioВерсия формата : Version 1Профиль формата : Layer 3Режим : Joint stereoРасширение режима : MS StereoИдентификатор кодека : 55Идентификатор кодека/Подсказка : MP3Продолжительность : 44 м.Вид битрейта : ПостоянныйБитрейт : 128 Кбит/секКаналы : 2 каналаЧастота : 48,0 КГцМетод сжатия : С потерямиРазмер потока : 41,0 Мбайт (8%)Выравнивание : Соединение по промежуткамПродолжительность промежутка : 40 мс. (1,00 видеокадр)Время предзагрузки промежутка : 504 мс.

Скриншоты

[Цитировать]



Показать сообщения:    

Текущее время: 04-Дек 02:56

Часовой пояс: UTC + 3


Вы не можете начинать темы
Вы не можете отвечать на сообщения
Вы не можете редактировать свои сообщения
Вы не можете удалять свои сообщения
Вы не можете голосовать в опросах
Вы не можете прикреплять файлы к сообщениям
Вы не можете скачивать файлы

!ВНИМАНИЕ!
Сайт не предоставляет электронные версии произведений, а занимается лишь коллекционированием и каталогизацией ссылок, присылаемых и публикуемых на форуме нашими читателями. Если вы являетесь правообладателем какого-либо представленного материала и не желаете, чтобы ссылка на него находилась в нашем каталоге, свяжитесь с нами, и мы незамедлительно удалим ее. Файлы для обмена на трекере предоставлены пользователями сайта, и администрация не несет ответственности за их содержание. Просьба не заливать файлы, защищенные авторскими правами, а также файлы нелегального содержания!